[4K电影] 静水城 / Stillwater (2021) 4K高清版本下载

[复制链接]

2333

主题

2482

帖子

1万

积分

超级版主

Rank: 8Rank: 8

积分
17982
 楼主| 发表于 2022-9-2 21:57:16 | 显示全部楼层 |阅读模式

QQ图片20220902215603_副本.png
◎标  题 静水城
◎译  名 静水 / 斯蒂尔沃特 / 止水
◎片  名 Stillwater
◎年  代 2021
◎产  地 美国
◎类  别 剧情 / 惊悚 / 犯罪
◎语  言 英语
◎上映日期 2021-07-08(戛纳电影节) / 2021-07-30(美国)
◎IMDb评分 6.6/10 (28638人评价)
◎IMDb链接 https://www.imdb.com/title/tt10696896/
◎豆瓣评分 7.1/10 (9482人评价)
◎豆瓣链接 https://movie.douban.com/subject/34614665/
◎片  长 139分钟
◎导  演 汤姆·麦卡锡 Tom McCarthy
◎编  剧 汤姆·麦卡锡 Tom McCarthy / 马库斯·辛奇 Marcus Hinchey / 托马斯·彼得葛恩 Thomas Bidegain / 诺亚·德勃雷 Noé Debré
◎演  员 马特·达蒙 Matt Damon
       卡米尔·科坦 Camille Cottin
       阿比盖尔·布雷斯林 Abigail Breslin
       利鲁·肖沃 Lilou Siauvaud
       狄安娜·杜纳甘 Deanna Dunagan
       伊迪尔·阿祖格利 Idir Azougli
       安娜·勒尼 Anne Le Ny
       茂萨·马斯克里 Moussa Maaskri
       伊莎贝尔·塔纳克 Isabelle Tanakil
       奈德拉·阿亚迪 Naidra Ayadi
       吉尔伯特·特拉尼亚 Gilbert Traina
       威廉·纳迪兰 William Nadylam
       沙扎德·拉蒂夫 Shazad Latif
       米歇尔‧邦波 Michel Bompoil
       莎拉·布鲁克斯 Sarah Brooks
       埃里克·斯达克 Eric Starkey
       罗伯特·皮特斯 Robert Peters
       Olivier Cruveiller Olivier Cruveiller


◎简  介


  影片围绕一个来自俄克拉荷马州的美国石油钻井平台钻工比尔(达蒙饰)展开。他不得不前往马赛,拜访他久未谋面却锒铛入狱的女儿(布雷斯林饰),他的女儿坚称并没有犯下谋杀罪。面对语言的障碍、文化的差异,以及复杂的法律制度,比尔决意孤注一掷拯救他的女儿。而在这个过程中,他与一位当地的女性和她的小女儿建立了友谊,也开始了个人的探索之旅,并获得了更大的归属感。

Video
ID : 1
Format : HEVC
Format/Info : High Efficiency Video Coding
Format profile : Main 10@L5@High
HDR format : SMPTE ST 2086, HDR10 compatible
Codec ID : V_MPEGH/ISO/HEVC
Duration : 2 h 19 min
Bit rate : 24.7 Mb/s
Width : 3 840 pixels
Height : 2 160 pixels
Display aspect ratio : 16:9
Frame rate mode : Constant
Frame rate : 23.976 (24000/1001) FPS
Color space : YUV
Chroma subsampling : 4:2:0 (Type 2)
Bit depth : 10 bits
Bits/(Pixel*Frame) : 0.124
Stream size : 24.0 GiB (86%)
Default : No
Forced : No
Color range : Limited
Color primaries : BT.2020
Transfer characteristics : PQ
Matrix coefficients : BT.2020 non-constant
Mastering display color primaries : BT.2020
Mastering display luminance : min: 0.0050 cd/m2, max: 1000 cd/m2
Maximum Content Light Level : 987 cd/m2
Maximum Frame-Average Light Level : 137 cd/m2

Audio #1
ID : 2
Format : DTS XLL
Format/Info : Digital Theater Systems
Commercial name : DTS-HD Master Audio
Codec ID : A_DTS
Duration : 2 h 18 min
Bit rate mode : Variable
Bit rate : 3 412 kb/s
Channel(s) : 6 channels
Channel layout : C L R Ls Rs LFE
Sampling rate : 48.0 kHz
Frame rate : 93.750 FPS (512 SPF)
Bit depth : 24 bits
Compression mode : Lossless
Delay relative to video : 23 s 424 ms
Stream size : 3.31 GiB (12%)
Title : DTS-HD Master Audio / 5.1 / 48 kHz / 3412 kbps / 24-bit
Language : English
Default : Yes
Forced : No

Audio #2
ID : 3
Format : AC-3
Format/Info : Audio Coding 3
Commercial name : Dolby Digital
Codec ID : A_AC3
Duration : 2 h 19 min
Bit rate mode : Constant
Bit rate : 640 kb/s
Channel(s) : 6 channels
Channel layout : L R C LFE Ls Rs
Sampling rate : 48.0 kHz
Frame rate : 31.250 FPS (1536 SPF)
Compression mode : Lossy
Stream size : 638 MiB (2%)
Title : DD 5.1
Language : English
Service kind : Complete Main
Default : No
Forced : No

Text #1
ID : 4
Format : UTF-8
Codec ID : S_TEXT/UTF8
Codec ID/Info : UTF-8 Plain Text
Duration : 2 h 1 min
Bit rate : 10 b/s
Frame rate : 0.036 FPS
Count of elements : 264
Stream size : 9.21 KiB (0%)
Title : Forced
Language : English
Default : No
Forced : Yes

Text #2
ID : 5
Format : UTF-8
Codec ID : S_TEXT/UTF8
Codec ID/Info : UTF-8 Plain Text
Duration : 2 h 10 min
Bit rate : 53 b/s
Frame rate : 0.251 FPS
Count of elements : 1963
Stream size : 50.7 KiB (0%)
Language : English
Default : Yes
Forced : No

Text #3
ID : 6
Format : UTF-8
Codec ID : S_TEXT/UTF8
Codec ID/Info : UTF-8 Plain Text
Duration : 2 h 18 min
Bit rate : 58 b/s
Frame rate : 0.281 FPS
Count of elements : 2340
Stream size : 59.8 KiB (0%)
Title : SDH
Language : English
Default : No
Forced : No

Text #4
ID : 7
Format : UTF-8
Codec ID : S_TEXT/UTF8
Codec ID/Info : UTF-8 Plain Text
Duration : 2 h 9 min
Bit rate : 53 b/s
Frame rate : 0.233 FPS
Count of elements : 1814
Stream size : 50.9 KiB (0%)
Title : Latin American
Language : Spanish
Default : No
Forced : No

Menu
00:00:23.424 : en:Chapter 01
00:08:13.852 : en:Chapter 02
00:13:20.367 : en:Chapter 03
00:22:40.426 : en:Chapter 04
00:32:47.283 : en:Chapter 05
00:38:08.979 : en:Chapter 06
00:44:25.814 : en:Chapter 07
00:49:28.950 : en:Chapter 08
00:58:14.475 : en:Chapter 09
01:03:42.636 : en:Chapter 10
01:08:45.147 : en:Chapter 11
01:16:29.360 : en:Chapter 12
01:25:27.398 : en:Chapter 13
01:32:39.705 : en:Chapter 14
01:39:42.335 : en:Chapter 15
01:45:50.620 : en:Chapter 16
01:52:07.121 : en:Chapter 17
02:01:20.549 : en:Chapter 18
02:05:54.823 : en:Chapter 19
02:12:31.928 : en:Chapter 20


资源速度为零或资源敏感被和谐时,推荐使用qBittorrent等下载软件,有条件的推荐115更好的下载软件!

下载地址:


游客,如果您要查看本帖隐藏内容请回复

游客,如果您要查看本帖隐藏内容请回复



相关其他4K高清版本下载:静水城 / Stillwater (2021) 4K高清下载




上一篇:交易室 / Wire Room‎ (2022) 4K高清版本下载
下一篇:兵临城下 / Enemy at the Gates (2001) 4K高清版本下载
回复

使用道具 举报

46

主题

1516

帖子

4392

积分

4K家园VIP

Rank: 9Rank: 9Rank: 9

积分
4392
发表于 2022-9-2 21:57:20 | 显示全部楼层
前排支持下了哦~
回复 支持 反对

使用道具 举报

0

主题

1351

帖子

4055

积分

4K家园VIP

Rank: 9Rank: 9Rank: 9

积分
4055
发表于 2022-9-3 02:21:10 | 显示全部楼层
顶起出售广告位
回复 支持 反对

使用道具 举报

2

主题

1355

帖子

3919

积分

4K家园VIP

Rank: 9Rank: 9Rank: 9

积分
3919
发表于 2022-9-3 02:46:02 | 显示全部楼层
学习下
回复 支持 反对

使用道具 举报

1

主题

1327

帖子

3799

积分

4K家园VIP

Rank: 9Rank: 9Rank: 9

积分
3799
发表于 2022-9-3 03:41:02 | 显示全部楼层
怎么这么大,希望我电视能看啊
回复 支持 反对

使用道具 举报

0

主题

4

帖子

30

积分

新手上路

Rank: 1

积分
30
发表于 2022-9-3 15:18:55 | 显示全部楼层
哇塞,想看很久了
回复 支持 反对

使用道具 举报

201

主题

1752

帖子

4818

积分

4K家园VIP

Rank: 9Rank: 9Rank: 9

积分
4818
发表于 2022-9-3 15:56:01 | 显示全部楼层
支持一下楼主,顶起来
回复 支持 反对

使用道具 举报

0

主题

140

帖子

782

积分

4K家园VIP

Rank: 9Rank: 9Rank: 9

积分
782
发表于 2022-9-9 13:00:14 | 显示全部楼层
楼主辛苦了,谢谢楼主,感谢楼主分享,楼主好人一生平安!!!
回复 支持 反对

使用道具 举报

0

主题

57

帖子

792

积分

新手上路

Rank: 1

积分
792
发表于 2022-9-9 22:22:49 | 显示全部楼层
看禁闻http://v.ht/tttd 点击访问
回复

使用道具 举报

您需要登录后才可以回帖 登录 | 立即注册

本版积分规则

精彩图文
Archiver|手机版|TAG|Sitemap|新帖|专题|联系我们:邮箱: 4kjia.com@gmail.com   

4k家园   ©2019