[4K美女视频] 2019赛车模特恩菲釜山二手车博览会 [2160/MP4/316MB]

[复制链接]

800

主题

883

帖子

5531

积分

超级版主

Rank: 8Rank: 8

积分
5531
 楼主| 发表于 6 天前 | 显示全部楼层 |阅读模式

2019赛车模特恩菲釜山二手车博览会.mp4_20190710_214731.795.jpg 2019赛车模特恩菲釜山二手车博览会.mp4_20190710_214756.828.jpg 2019赛车模特恩菲釜山二手车博览会.mp4_20190710_214801.500.jpg 2019赛车模特恩菲釜山二手车博览会.mp4_20190710_214832.596.jpg 2019赛车模特恩菲釜山二手车博览会.mp4.jpg

General
Complete name                  : D:\360安全浏览器下载\4K视频\2019赛车模特恩菲釜山二手车博览会.mp4
Format                         : MPEG-4
Format profile                 : Base Media
Codec ID                       : isom (isom/iso2/avc1/mp41)
File size                      : 317 MiB
Duration                       : 2 min 42 s
Overall bit rate               : 16.4 Mb/s
Writing application            : EX1.4.4(C1.0.9)

Video
ID                             : 1
Format                         : AVC
Format/Info                    : Advanced Video Codec
Format profile                 : [email protected]
Format settings                : CABAC / 3 Ref Frames
Format settings, CABAC         : Yes
Format settings, Reference fra : 3 frames
Codec ID                       : avc1
Codec ID/Info                  : Advanced Video Coding
Duration                       : 2 min 42 s
Bit rate                       : 16.2 Mb/s
Width                          : 3 840 pixels
Height                         : 2 160 pixels
Display aspect ratio           : 16:9
Frame rate mode                : Constant
Frame rate                     : 29.970 (29970/1000) FPS
Color space                    : YUV
Chroma subsampling             : 4:2:0
Bit depth                      : 8 bits
Scan type                      : Progressive
Bits/(Pixel*Frame)             : 0.065
Stream size                    : 313 MiB (99%)
Codec configuration box        : avcC

Audio
ID                             : 2
Format                         : AAC LC
Format/Info                    : Advanced Audio Codec Low Complexity
Codec ID                       : mp4a-40-2
Duration                       : 2 min 42 s
Bit rate mode                  : Constant
Bit rate                       : 192 kb/s
Channel(s)                     : 2 channels
Channel layout                 : L R
Sampling rate                  : 48.0 kHz
Frame rate                     : 46.875 FPS (1024 SPF)
Compression mode               : Lossy
Stream size                    : 3.71 MiB (1%)
Default                        : Yes
Alternate group                : 1



网盘下载失效不补:链接: https://pan.baidu.com/s/11m8nWAItA9nOZj48s89vuA
****此区域为收费内容****    需支付 15 金币后可查看立即购买


1.gif

.

上一篇:2019比基尼泳装美女西门町外拍2 [2160/MP4/726MB]
下一篇:2019第10届台湾小姐泳装赛5号参赛者走秀 [2160/MP4/226MB]
回复

使用道具 举报

0

主题

937

帖子

2829

积分

4K家园VIP

Rank: 9Rank: 9Rank: 9

积分
2829
发表于 6 天前 | 显示全部楼层
回个帖子,下班咯~
回复 支持 反对

使用道具 举报

0

主题

895

帖子

2705

积分

4K家园VIP

Rank: 9Rank: 9Rank: 9

积分
2705
发表于 6 天前 | 显示全部楼层
众里寻他千百度,蓦然回首在这里!
回复 支持 反对

使用道具 举报

0

主题

314

帖子

2080

积分

4K家园VIP

Rank: 9Rank: 9Rank: 9

积分
2080
QQ
发表于 6 天前 | 显示全部楼层
下载支持了!!
回复 支持 反对

使用道具 举报

0

主题

1198

帖子

3230

积分

4K家园VIP

Rank: 9Rank: 9Rank: 9

积分
3230
发表于 6 天前 来自手机 | 显示全部楼层
前排,哇咔咔
回复 支持 反对

使用道具 举报

0

主题

643

帖子

2745

积分

中级会员

Rank: 4

积分
2745
发表于 5 天前 | 显示全部楼层

4K家园赞一个!
回复 支持 反对

使用道具 举报

0

主题

899

帖子

2709

积分

4K家园VIP

Rank: 9Rank: 9Rank: 9

积分
2709
发表于 5 天前 来自手机 | 显示全部楼层
出4K版啦,下个看看
回复 支持 反对

使用道具 举报

0

主题

1234

帖子

3214

积分

4K家园VIP

Rank: 9Rank: 9Rank: 9

积分
3214
发表于 5 天前 | 显示全部楼层
感谢楼主的分享,还是阔以滴
回复 支持 反对

使用道具 举报

您需要登录后才可以回帖 登录 | 立即注册

本版积分规则

精彩图文
关闭

站长推荐上一条 /2 下一条

4k家园   ©2019