[4K美女视频] 2019 少女时代-宋珠雅直拍 [2160/MP4/573MB]

[复制链接]

800

主题

883

帖子

5531

积分

超级版主

Rank: 8Rank: 8

积分
5531
 楼主| 发表于 7 天前 | 显示全部楼层 |阅读模式

2019 少女时代-宋珠雅直拍.mp4_20190710_220525.603.jpg 2019 少女时代-宋珠雅直拍.mp4_20190710_220540.845.jpg 2019 少女时代-宋珠雅直拍.mp4_20190710_220603.590.jpg 2019 少女时代-宋珠雅直拍.mp4_20190710_220615.027.jpg 2019 少女时代-宋珠雅直拍.mp4.jpg

General
Complete name                  : 4K视频\2019 少女时代-宋珠雅直拍.mp4
Format                         : MPEG-4
Format profile                 : Base Media
Codec ID                       : isom (isom/iso2/avc1/mp41)
File size                      : 574 MiB
Duration                       : 4 min 14 s
Overall bit rate               : 18.9 Mb/s
Writing application            : EX1.4.4(C1.0.9)

Video
ID                             : 1
Format                         : AVC
Format/Info                    : Advanced Video Codec
Format profile                 : [email protected]
Format settings                : CABAC / 3 Ref Frames
Format settings, CABAC         : Yes
Format settings, Reference fra : 3 frames
Codec ID                       : avc1
Codec ID/Info                  : Advanced Video Coding
Duration                       : 4 min 14 s
Bit rate                       : 18.7 Mb/s
Width                          : 2 160 pixels
Height                         : 3 840 pixels
Display aspect ratio           : 0.563
Frame rate mode                : Constant
Frame rate                     : 29.970 (29970/1000) FPS
Color space                    : YUV
Chroma subsampling             : 4:2:0
Bit depth                      : 8 bits
Scan type                      : Progressive
Bits/(Pixel*Frame)             : 0.075
Stream size                    : 568 MiB (99%)
Codec configuration box        : avcC

Audio
ID                             : 2
Format                         : AAC LC
Format/Info                    : Advanced Audio Codec Low Complexity
Codec ID                       : mp4a-40-2
Duration                       : 4 min 14 s
Duration_LastFrame             : -13 ms
Bit rate mode                  : Constant
Bit rate                       : 192 kb/s
Channel(s)                     : 2 channels
Channel layout                 : L R
Sampling rate                  : 44.1 kHz
Frame rate                     : 43.066 FPS (1024 SPF)
Compression mode               : Lossy
Stream size                    : 5.83 MiB (1%)
Default                        : Yes
Alternate group                : 1


网盘下载失效不补:链接: https://pan.baidu.com/s/1Tx0hGWCGySzmDLA6d5Z8Aw
****此区域为收费内容****    需支付 15 金币后可查看立即购买


1.gif






.

上一篇:2019第10届台湾小姐泳装赛5号参赛者走秀 [2160/MP4/226MB]
下一篇:[4K三星演示片] 黑色的马戏团/60fps [2160P/TS/706MB]
回复

使用道具 举报

0

主题

939

帖子

2623

积分

4K家园VIP

Rank: 9Rank: 9Rank: 9

积分
2623
发表于 7 天前 | 显示全部楼层
你们要是有4K资源记得分享,别小气
回复 支持 反对

使用道具 举报

0

主题

910

帖子

2576

积分

中级会员

Rank: 4

积分
2576
发表于 7 天前 来自手机 | 显示全部楼层
楼猪辛苦了,支持一下分享好资源
回复 支持 反对

使用道具 举报

0

主题

996

帖子

2824

积分

4K家园VIP

Rank: 9Rank: 9Rank: 9

积分
2824
发表于 7 天前 | 显示全部楼层
小白一个 顶一下
回复 支持 反对

使用道具 举报

0

主题

949

帖子

2679

积分

中级会员

Rank: 4

积分
2679
发表于 7 天前 | 显示全部楼层
楼下的接上
回复 支持 反对

使用道具 举报

1

主题

4

帖子

35

积分

4K家园VIP

Rank: 9Rank: 9Rank: 9

积分
35
发表于 7 天前 来自手机 | 显示全部楼层
肥肠的不错,有资源分享
回复 支持 反对

使用道具 举报

0

主题

985

帖子

2785

积分

4K家园VIP

Rank: 9Rank: 9Rank: 9

积分
2785
发表于 7 天前 | 显示全部楼层
LZ敢整点更有创意的不?兄弟们等着围观捏~
回复 支持 反对

使用道具 举报

0

主题

314

帖子

2080

积分

4K家园VIP

Rank: 9Rank: 9Rank: 9

积分
2080
QQ
发表于 7 天前 | 显示全部楼层
动漫模特最喜欢了!!
回复 支持 反对

使用道具 举报

0

主题

330

帖子

1889

积分

中级会员

Rank: 4

积分
1889
发表于 6 天前 | 显示全部楼层

感谢分享!!!
回复

使用道具 举报

您需要登录后才可以回帖 登录 | 立即注册

本版积分规则

精彩图文
关闭

站长推荐上一条 /2 下一条

4k家园   ©2019