[4K电影] BTS舞台舞蹈许可:首尔实时观看[简繁粤](2022)4K高清版本下载

[复制链接]

2333

主题

2482

帖子

1万

积分

超级版主

Rank: 8Rank: 8

积分
17979
 楼主| 发表于 2022-9-9 10:18:43 | 显示全部楼层 |阅读模式
QQ图片20220909100241_副本.png

◎译  名 BTS舞台舞蹈许可:首尔实时观看
◎片  名 BTS Permission to Dance on Stage - Seoul: Live Viewing
◎年  代 2022
◎产  地 韩国
◎类  别 歌舞
◎语  言 韩语
◎上映日期 2022-03-12(美国)
◎IMDb评分 6.8/10 from 137 users 更新 : 2022-09-09
◎IMDb链接 https://www.imdb.com/title/tt18687124/
◎豆瓣评分 0/10 from 0 users
◎豆瓣链接 https://movie.douban.com/subject/35800179/
◎片  长 59分钟
◎演  员 BTS



◎简  介


         BTS的演唱会定于3月10、12及13日在蚕室综合运动场演出,而当中的10日及13日的演出将同时开放在线播放,让因疫情无法赴韩的海外ARMY都可以透过网上参与。12日的演唱会以「Live Viewing」的方式在各地的戏院上映。
Video
ID : 1
Format : HEVC
Format/Info : High Efficiency Video Coding
Format profile : Main 10@L5@High
HDR format : SMPTE ST 2086, HDR10 compatible
Codec ID : V_MPEGH/ISO/HEVC
Duration : 2 h 10 min
Bit rate : 15.6 Mb/s
Width : 3 840 pixels
Height : 2 160 pixels
Display aspect ratio : 16:9
Frame rate mode : Constant
Frame rate : 23.976 (24000/1001) FPS
Color space : YUV
Chroma subsampling : 4:2:0
Bit depth : 10 bits
Bits/(Pixel*Frame) : 0.078
Stream size : 14.3 GiB (95%)
Language : Korean
Default : Yes
Forced : No
Color range : Limited
Color primaries : BT.2020
Transfer characteristics : PQ
Matrix coefficients : BT.2020 non-constant
Mastering display color primaries : BT.2020
Mastering display luminance : min: 0.0001 cd/m2, max: 1000 cd/m2

Audio
ID : 2
Format : E-AC-3 JOC
Format/Info : Enhanced AC-3 with Joint Object Coding
Commercial name : Dolby Digital Plus with Dolby Atmos
Codec ID : A_EAC3
Duration : 2 h 10 min
Bit rate mode : Constant
Bit rate : 768 kb/s
Channel(s) : 6 channels
Channel layout : L R C LFE Ls Rs
Sampling rate : 48.0 kHz
Frame rate : 31.250 FPS (1536 SPF)
Compression mode : Lossy
Stream size : 719 MiB (5%)
Language : Korean
Service kind : Complete Main
Default : Yes
Forced : No
Complexity index : 16
Number of dynamic objects : 15
Bed channel count : 1 channel
Bed channel configuration : LFE

Text #1
ID : 3
Format : UTF-8
Codec ID : S_TEXT/UTF8
Codec ID/Info : UTF-8 Plain Text
Duration : 2 h 7 min
Bit rate : 91 b/s
Frame rate : 0.304 FPS
Count of elements : 2329
Stream size : 85.8 KiB (0%)
Title : English (forced)
Language : English
Default : Yes
Forced : Yes

Text #2
ID : 4
Format : UTF-8
Codec ID : S_TEXT/UTF8
Codec ID/Info : UTF-8 Plain Text
Duration : 2 h 10 min
Bit rate : 108 b/s
Frame rate : 0.334 FPS
Count of elements : 2625
Stream size : 104 KiB (0%)
Title : Korean [CC]
Language : Korean
Default : No
Forced : No

Text #3
ID : 5
Format : UTF-8
Codec ID : S_TEXT/UTF8
Codec ID/Info : UTF-8 Plain Text
Duration : 2 h 9 min
Bit rate : 72 b/s
Frame rate : 0.278 FPS
Count of elements : 2150
Stream size : 68.6 KiB (0%)
Title : Čeština
Language : Czech
Default : No
Forced : No

Text #4
ID : 6
Format : UTF-8
Codec ID : S_TEXT/UTF8
Codec ID/Info : UTF-8 Plain Text
Duration : 2 h 9 min
Bit rate : 73 b/s
Frame rate : 0.277 FPS
Count of elements : 2148
Stream size : 69.3 KiB (0%)
Title : Dansk
Language : Danish
Default : No
Forced : No

Text #5
ID : 7
Format : UTF-8
Codec ID : S_TEXT/UTF8
Codec ID/Info : UTF-8 Plain Text
Duration : 2 h 9 min
Bit rate : 75 b/s
Frame rate : 0.276 FPS
Count of elements : 2138
Stream size : 71.7 KiB (0%)
Title : Deutsch
Language : German
Default : No
Forced : No

Text #6
ID : 8
Format : UTF-8
Codec ID : S_TEXT/UTF8
Codec ID/Info : UTF-8 Plain Text
Duration : 2 h 9 min
Bit rate : 120 b/s
Frame rate : 0.278 FPS
Count of elements : 2149
Stream size : 114 KiB (0%)
Title : Greek
Language : Greek
Default : No
Forced : No

Text #7
ID : 9
Format : UTF-8
Codec ID : S_TEXT/UTF8
Codec ID/Info : UTF-8 Plain Text
Duration : 2 h 9 min
Bit rate : 70 b/s
Frame rate : 0.278 FPS
Count of elements : 2149
Stream size : 66.8 KiB (0%)
Title : Español
Language : Spanish
Default : No
Forced : No

Text #8
ID : 10
Format : UTF-8
Codec ID : S_TEXT/UTF8
Codec ID/Info : UTF-8 Plain Text
Duration : 2 h 9 min
Bit rate : 72 b/s
Frame rate : 0.278 FPS
Count of elements : 2150
Stream size : 68.7 KiB (0%)
Title : Español (Latinoamericano)
Language : Spanish
Default : No
Forced : No

Text #9
ID : 11
Format : UTF-8
Codec ID : S_TEXT/UTF8
Codec ID/Info : UTF-8 Plain Text
Duration : 2 h 9 min
Bit rate : 67 b/s
Frame rate : 0.278 FPS
Count of elements : 2149
Stream size : 64.3 KiB (0%)
Title : Suomi
Language : Finnish
Default : No
Forced : No

Text #10
ID : 12
Format : UTF-8
Codec ID : S_TEXT/UTF8
Codec ID/Info : UTF-8 Plain Text
Duration : 2 h 9 min
Bit rate : 73 b/s
Frame rate : 0.270 FPS
Count of elements : 2089
Stream size : 69.1 KiB (0%)
Title : Français
Language : French
Default : No
Forced : No

Text #11
ID : 13
Format : UTF-8
Codec ID : S_TEXT/UTF8
Codec ID/Info : UTF-8 Plain Text
Duration : 2 h 9 min
Bit rate : 70 b/s
Frame rate : 0.278 FPS
Count of elements : 2150
Stream size : 66.2 KiB (0%)
Title : Magyar
Language : Hungarian
Default : No
Forced : No

Text #12
ID : 14
Format : UTF-8
Codec ID : S_TEXT/UTF8
Codec ID/Info : UTF-8 Plain Text
Duration : 2 h 9 min
Bit rate : 74 b/s
Frame rate : 0.278 FPS
Count of elements : 2150
Stream size : 70.0 KiB (0%)
Title : Italiano
Language : Italian
Default : No
Forced : No

Text #13
ID : 15
Format : UTF-8
Codec ID : S_TEXT/UTF8
Codec ID/Info : UTF-8 Plain Text
Duration : 2 h 5 min
Bit rate : 71 b/s
Frame rate : 0.292 FPS
Count of elements : 2208
Stream size : 66.3 KiB (0%)
Title : Japanese
Language : Japanese
Default : No
Forced : No

Text #14
ID : 16
Format : UTF-8
Codec ID : S_TEXT/UTF8
Codec ID/Info : UTF-8 Plain Text
Duration : 2 h 9 min
Bit rate : 69 b/s
Frame rate : 0.273 FPS
Count of elements : 2114
Stream size : 65.7 KiB (0%)
Title : Nederlands
Language : Dutch
Default : No
Forced : No

Text #15
ID : 17
Format : UTF-8
Codec ID : S_TEXT/UTF8
Codec ID/Info : UTF-8 Plain Text
Duration : 2 h 9 min
Bit rate : 70 b/s
Frame rate : 0.278 FPS
Count of elements : 2149
Stream size : 66.8 KiB (0%)
Title : Norsk
Language : Norwegian
Default : No
Forced : No

Text #16
ID : 18
Format : UTF-8
Codec ID : S_TEXT/UTF8
Codec ID/Info : UTF-8 Plain Text
Duration : 2 h 9 min
Bit rate : 75 b/s
Frame rate : 0.278 FPS
Count of elements : 2150
Stream size : 71.3 KiB (0%)
Title : Polski
Language : Polish
Default : No
Forced : No

Text #17
ID : 19
Format : UTF-8
Codec ID : S_TEXT/UTF8
Codec ID/Info : UTF-8 Plain Text
Duration : 2 h 9 min
Bit rate : 72 b/s
Frame rate : 0.272 FPS
Count of elements : 2105
Stream size : 68.8 KiB (0%)
Title : Português (Brasil)
Language : Portuguese
Default : No
Forced : No

Text #18
ID : 20
Format : UTF-8
Codec ID : S_TEXT/UTF8
Codec ID/Info : UTF-8 Plain Text
Duration : 2 h 9 min
Bit rate : 69 b/s
Frame rate : 0.278 FPS
Count of elements : 2150
Stream size : 65.9 KiB (0%)
Title : Português
Language : Portuguese
Default : No
Forced : No

Text #19
ID : 21
Format : UTF-8
Codec ID : S_TEXT/UTF8
Codec ID/Info : UTF-8 Plain Text
Duration : 2 h 9 min
Bit rate : 74 b/s
Frame rate : 0.278 FPS
Count of elements : 2150
Stream size : 69.9 KiB (0%)
Title : Română
Language : Romanian
Default : No
Forced : No

Text #20
ID : 22
Format : UTF-8
Codec ID : S_TEXT/UTF8
Codec ID/Info : UTF-8 Plain Text
Duration : 2 h 9 min
Bit rate : 74 b/s
Frame rate : 0.278 FPS
Count of elements : 2150
Stream size : 70.8 KiB (0%)
Title : Slovenčina
Language : Slovak
Default : No
Forced : No

Text #21
ID : 23
Format : UTF-8
Codec ID : S_TEXT/UTF8
Codec ID/Info : UTF-8 Plain Text
Duration : 2 h 9 min
Bit rate : 68 b/s
Frame rate : 0.278 FPS
Count of elements : 2149
Stream size : 64.8 KiB (0%)
Title : Svenska
Language : Swedish
Default : No
Forced : No

Text #22
ID : 24
Format : UTF-8
Codec ID : S_TEXT/UTF8
Codec ID/Info : UTF-8 Plain Text
Duration : 2 h 9 min
Bit rate : 71 b/s
Frame rate : 0.277 FPS
Count of elements : 2148
Stream size : 67.8 KiB (0%)
Title : Türkçe
Language : Turkish
Default : No
Forced : No

Text #23
ID : 25
Format : UTF-8
Codec ID : S_TEXT/UTF8
Codec ID/Info : UTF-8 Plain Text
Duration : 2 h 9 min
Bit rate : 65 b/s
Frame rate : 0.279 FPS
Count of elements : 2161
Stream size : 61.6 KiB (0%)
Title : 中文(繁体)
Language : 中文
Default : No
Forced : No

Text #24
ID : 26
Format : UTF-8
Codec ID : S_TEXT/UTF8
Codec ID/Info : UTF-8 Plain Text
Duration : 2 h 9 min
Bit rate : 64 b/s
Frame rate : 0.279 FPS
Count of elements : 2159
Stream size : 60.9 KiB (0%)
Title : 中文(粤语)
Language : 中文
Default : No
Forced : No

Text #25
ID : 27
Format : UTF-8
Codec ID : S_TEXT/UTF8
Codec ID/Info : UTF-8 Plain Text
Duration : 2 h 9 min
Bit rate : 67 b/s
Frame rate : 0.278 FPS
Count of elements : 2155
Stream size : 63.3 KiB (0%)
Title : 中文(简体)
Language : 中文
Default : No
Forced : No

资源速度为零或资源敏感被和谐时,推荐使用qBittorrent等下载软件,有条件的推荐115更好的下载软件!

下载地址:


游客,如果您要查看本帖隐藏内容请回复

游客,如果您要查看本帖隐藏内容请回复

游客,如果您要查看本帖隐藏内容请回复





上一篇:匹诺曹[简繁粤中字] / Pinocchio (2022) 4K高清版本下载
下一篇:关于命运 / About Fate (2022)4K高清版本下载
回复

使用道具 举报

6

主题

1463

帖子

4235

积分

4K家园VIP

Rank: 9Rank: 9Rank: 9

积分
4235
发表于 2022-9-9 10:18:51 来自手机 | 显示全部楼层
支持一下楼主,顶起来
回复 支持 反对

使用道具 举报

3

主题

1409

帖子

4069

积分

4K家园VIP

Rank: 9Rank: 9Rank: 9

积分
4069
发表于 2022-9-9 11:40:53 | 显示全部楼层
1v1飘过
回复 支持 反对

使用道具 举报

1

主题

1395

帖子

3985

积分

中级会员

Rank: 4

积分
3985
发表于 2022-9-9 12:21:07 | 显示全部楼层
回复 支持 反对

使用道具 举报

1

主题

1174

帖子

3542

积分

4K家园VIP

Rank: 9Rank: 9Rank: 9

积分
3542
发表于 2022-9-9 14:25:41 来自手机 | 显示全部楼层
边撸边过
回复 支持 反对

使用道具 举报

50

主题

1500

帖子

4272

积分

4K家园VIP

Rank: 9Rank: 9Rank: 9

积分
4272
发表于 2022-9-9 16:20:06 | 显示全部楼层
我了个去,顶了
回复 支持 反对

使用道具 举报

您需要登录后才可以回帖 登录 | 立即注册

本版积分规则

精彩图文
Archiver|手机版|TAG|Sitemap|新帖|专题|联系我们:邮箱: 4kjia.com@gmail.com   

4k家园   ©2019