浮出水面 [简繁粤中字](2022)/第一季全/4K高清版本下载

[复制链接]

205

主题

228

帖子

2261

积分

版主

Rank: 7Rank: 7Rank: 7

积分
2261
 楼主| 发表于 2022-9-12 11:00:40 | 显示全部楼层 |阅读模式
本帖最后由 美剧小虾 于 2022-9-12 11:02 编辑

p2875245864_副本.png

◎译  名 浮出水面
◎片  名 Surface
◎年  代 2022
◎产  地 美国
◎类  别 惊悚
◎语  言 英语
◎上映日期 2022-07-29(美国)
◎IMDb评分 6.1/10 from 2187 users
◎IMDb链接 https://www.imdb.com/title/tt13694702/
◎豆瓣评分 6.1/10 from 253 users
◎豆瓣链接 https://douban.com/subject/35273094/
◎集  数 8
◎导  演 萨姆·米勒 Sam Miller
◎编  剧 维罗妮卡·韦斯特 Veronica West
◎主  演 古古·姆巴塔-劳 Gugu Mbatha-Raw
       奥利弗·杰森-科恩 Oliver Jackson-Cohen
       史蒂芬·詹姆士 Stephan James
       艾莉·葛瑞那 Ari Graynor
       弗朗索瓦·阿诺德 François Arnaud
       玛丽安娜·琼-巴普蒂斯特 Marianne Jean-Baptiste
       米莉·布拉迪 Millie Brady

◎简  介

  一个女人试图在自杀后重建自己的生活,以及她努力理解导致那一刻的所有事情。

Video
ID : 1
Format : HEVC
Format/Info : High Efficiency Video Coding
Format profile : Main 10@L5@High
HDR format : Dolby Vision, Version 1.0, dvhe.05.06, BL+RPU
Codec ID : V_MPEGH/ISO/HEVC
Duration : 53 min 24 s
Bit rate : 24.9 Mb/s
Width : 3 840 pixels
Height : 1 920 pixels
Display aspect ratio : 2.000
Frame rate mode : Constant
Frame rate : 23.976 (24000/1001) FPS
Color space : YUV
Chroma subsampling : 4:2:0
Bit depth : 10 bits
Bits/(Pixel*Frame) : 0.141
Stream size : 9.27 GiB (97%)
Default : Yes
Forced : No

Audio
ID : 2
Format : E-AC-3 JOC
Format/Info : Enhanced AC-3 with Joint Object Coding
Commercial name : Dolby Digital Plus with Dolby Atmos
Codec ID : A_EAC3
Duration : 53 min 24 s
Bit rate mode : Constant
Bit rate : 768 kb/s
Channel(s) : 6 channels
Channel layout : L R C LFE Ls Rs
Sampling rate : 48.0 kHz
Frame rate : 31.250 FPS (1536 SPF)
Compression mode : Lossy
Stream size : 293 MiB (3%)
Language : English
Service kind : Complete Main
Default : Yes
Forced : No
Complexity index : 16
Number of dynamic objects : 15
Bed channel count : 1 channel
Bed channel configuration : LFE

Text #1
ID : 3
Format : UTF-8
Codec ID : S_TEXT/UTF8
Codec ID/Info : UTF-8 Plain Text
Duration : 50 min 44 s
Bit rate : 62 b/s
Frame rate : 0.218 FPS
Count of elements : 664
Stream size : 23.4 KiB (0%)
Language : English
Default : No
Forced : No

Text #2
ID : 4
Format : UTF-8
Codec ID : S_TEXT/UTF8
Codec ID/Info : UTF-8 Plain Text
Duration : 51 min 6 s
Bit rate : 71 b/s
Frame rate : 0.240 FPS
Count of elements : 735
Stream size : 27.0 KiB (0%)
Title : SDH
Language : English
Default : No
Forced : No

Text #3
ID : 5
Format : UTF-8
Codec ID : S_TEXT/UTF8
Codec ID/Info : UTF-8 Plain Text
Duration : 51 min 45 s
Bit rate : 83 b/s
Frame rate : 0.216 FPS
Count of elements : 670
Stream size : 31.8 KiB (0%)
Language : Arabic
Default : No
Forced : No

Text #4
ID : 6
Format : UTF-8
Codec ID : S_TEXT/UTF8
Codec ID/Info : UTF-8 Plain Text
Duration : 51 min 45 s
Bit rate : 91 b/s
Frame rate : 0.190 FPS
Count of elements : 590
Stream size : 34.8 KiB (0%)
Language : Bulgarian
Default : No
Forced : No

Text #5
ID : 7
Format : UTF-8
Codec ID : S_TEXT/UTF8
Codec ID/Info : UTF-8 Plain Text
Duration : 51 min 45 s
Bit rate : 56 b/s
Frame rate : 0.216 FPS
Count of elements : 671
Stream size : 21.4 KiB (0%)
Title : 简体
Language : 中文
Default : No
Forced : No

Text #6
ID : 8
Format : UTF-8
Codec ID : S_TEXT/UTF8
Codec ID/Info : UTF-8 Plain Text
Duration : 52 min 15 s
Bit rate : 53 b/s
Frame rate : 0.214 FPS
Count of elements : 672
Stream size : 20.7 KiB (0%)
Title : 繁体
Language : 中文
Default : No
Forced : No

Text #7
ID : 9
Format : UTF-8
Codec ID : S_TEXT/UTF8
Codec ID/Info : UTF-8 Plain Text
Duration : 52 min 15 s
Bit rate : 58 b/s
Frame rate : 0.198 FPS
Count of elements : 622
Stream size : 22.3 KiB (0%)
Language : Czech
Default : No
Forced : No

Text #8
ID : 10
Format : UTF-8
Codec ID : S_TEXT/UTF8
Codec ID/Info : UTF-8 Plain Text
Duration : 51 min 45 s
Bit rate : 59 b/s
Frame rate : 0.194 FPS
Count of elements : 602
Stream size : 22.5 KiB (0%)
Language : Danish
Default : No
Forced : No

Text #9
ID : 11
Format : UTF-8
Codec ID : S_TEXT/UTF8
Codec ID/Info : UTF-8 Plain Text
Duration : 51 min 57 s
Bit rate : 67 b/s
Frame rate : 0.216 FPS
Count of elements : 675
Stream size : 25.7 KiB (0%)
Language : German
Default : No
Forced : No

Text #10
ID : 12
Format : UTF-8
Codec ID : S_TEXT/UTF8
Codec ID/Info : UTF-8 Plain Text
Duration : 52 min 15 s
Bit rate : 100 b/s
Frame rate : 0.205 FPS
Count of elements : 644
Stream size : 38.4 KiB (0%)
Language : Greek
Default : No
Forced : No

Text #11
ID : 13
Format : UTF-8
Codec ID : S_TEXT/UTF8
Codec ID/Info : UTF-8 Plain Text
Duration : 52 min 15 s
Bit rate : 59 b/s
Frame rate : 0.213 FPS
Count of elements : 669
Stream size : 22.8 KiB (0%)
Title : Latin American
Language : Spanish
Default : No
Forced : No

Text #12
ID : 14
Format : UTF-8
Codec ID : S_TEXT/UTF8
Codec ID/Info : UTF-8 Plain Text
Duration : 52 min 27 s
Bit rate : 61 b/s
Frame rate : 0.212 FPS
Count of elements : 668
Stream size : 23.7 KiB (0%)
Title : European
Language : Spanish
Default : No
Forced : No

Text #13
ID : 15
Format : UTF-8
Codec ID : S_TEXT/UTF8
Codec ID/Info : UTF-8 Plain Text
Duration : 51 min 45 s
Bit rate : 57 b/s
Frame rate : 0.211 FPS
Count of elements : 654
Stream size : 21.7 KiB (0%)
Language : Estonian
Default : No
Forced : No

Text #14
ID : 16
Format : UTF-8
Codec ID : S_TEXT/UTF8
Codec ID/Info : UTF-8 Plain Text
Duration : 51 min 45 s
Bit rate : 55 b/s
Frame rate : 0.215 FPS
Count of elements : 668
Stream size : 21.1 KiB (0%)
Language : Finnish
Default : No
Forced : No

Text #15
ID : 17
Format : UTF-8
Codec ID : S_TEXT/UTF8
Codec ID/Info : UTF-8 Plain Text
Duration : 51 min 43 s
Bit rate : 56 b/s
Frame rate : 0.232 FPS
Count of elements : 721
Stream size : 21.5 KiB (0%)
Title : Canadian
Language : French
Default : No
Forced : No

Text #16
ID : 18
Format : UTF-8
Codec ID : S_TEXT/UTF8
Codec ID/Info : UTF-8 Plain Text
Duration : 51 min 43 s
Bit rate : 56 b/s
Frame rate : 0.232 FPS
Count of elements : 721
Stream size : 21.5 KiB (0%)
Language : French
Default : No
Forced : No

Text #17
ID : 19
Format : UTF-8
Codec ID : S_TEXT/UTF8
Codec ID/Info : UTF-8 Plain Text
Duration : 51 min 45 s
Bit rate : 81 b/s
Frame rate : 0.216 FPS
Count of elements : 671
Stream size : 31.1 KiB (0%)
Language : Hebrew
Default : No
Forced : No

Text #18
ID : 20
Format : UTF-8
Codec ID : S_TEXT/UTF8
Codec ID/Info : UTF-8 Plain Text
Duration : 52 min 15 s
Bit rate : 164 b/s
Frame rate : 0.214 FPS
Count of elements : 672
Stream size : 62.8 KiB (0%)
Language : Hindi
Default : No
Forced : No

Text #19
ID : 21
Format : UTF-8
Codec ID : S_TEXT/UTF8
Codec ID/Info : UTF-8 Plain Text
Duration : 52 min 15 s
Bit rate : 55 b/s
Frame rate : 0.212 FPS
Count of elements : 666
Stream size : 21.1 KiB (0%)
Language : Hungarian
Default : No
Forced : No

Text #20
ID : 22
Format : UTF-8
Codec ID : S_TEXT/UTF8
Codec ID/Info : UTF-8 Plain Text
Duration : 51 min 45 s
Bit rate : 59 b/s
Frame rate : 0.215 FPS
Count of elements : 669
Stream size : 22.7 KiB (0%)
Language : Indonesian
Default : No
Forced : No

Text #21
ID : 23
Format : UTF-8
Codec ID : S_TEXT/UTF8
Codec ID/Info : UTF-8 Plain Text
Duration : 51 min 57 s
Bit rate : 66 b/s
Frame rate : 0.216 FPS
Count of elements : 673
Stream size : 25.3 KiB (0%)
Language : Italian
Default : No
Forced : No

Text #22
ID : 24
Format : UTF-8
Codec ID : S_TEXT/UTF8
Codec ID/Info : UTF-8 Plain Text
Duration : 52 min 15 s
Bit rate : 48 b/s
Frame rate : 0.218 FPS
Count of elements : 683
Stream size : 18.7 KiB (0%)
Language : Japanese
Default : No
Forced : No

Text #23
ID : 25
Format : UTF-8
Codec ID : S_TEXT/UTF8
Codec ID/Info : UTF-8 Plain Text
Duration : 52 min 15 s
Bit rate : 68 b/s
Frame rate : 0.214 FPS
Count of elements : 671
Stream size : 26.2 KiB (0%)
Language : Korean
Default : No
Forced : No

Text #24
ID : 26
Format : UTF-8
Codec ID : S_TEXT/UTF8
Codec ID/Info : UTF-8 Plain Text
Duration : 51 min 45 s
Bit rate : 60 b/s
Frame rate : 0.216 FPS
Count of elements : 670
Stream size : 22.8 KiB (0%)
Language : Lithuanian
Default : No
Forced : No

Text #25
ID : 27
Format : UTF-8
Codec ID : S_TEXT/UTF8
Codec ID/Info : UTF-8 Plain Text
Duration : 51 min 45 s
Bit rate : 59 b/s
Frame rate : 0.215 FPS
Count of elements : 668
Stream size : 22.4 KiB (0%)
Language : Latvian
Default : No
Forced : No

Text #26
ID : 28
Format : UTF-8
Codec ID : S_TEXT/UTF8
Codec ID/Info : UTF-8 Plain Text
Duration : 51 min 45 s
Bit rate : 59 b/s
Frame rate : 0.215 FPS
Count of elements : 669
Stream size : 22.7 KiB (0%)
Language : Malay
Default : No
Forced : No

Text #27
ID : 29
Format : UTF-8
Codec ID : S_TEXT/UTF8
Codec ID/Info : UTF-8 Plain Text
Duration : 51 min 45 s
Bit rate : 55 b/s
Frame rate : 0.179 FPS
Count of elements : 557
Stream size : 21.0 KiB (0%)
Language : Dutch
Default : No
Forced : No

Text #28
ID : 30
Format : UTF-8
Codec ID : S_TEXT/UTF8
Codec ID/Info : UTF-8 Plain Text
Duration : 51 min 45 s
Bit rate : 59 b/s
Frame rate : 0.174 FPS
Count of elements : 540
Stream size : 22.6 KiB (0%)
Language : Norwegian
Default : No
Forced : No

Text #29
ID : 31
Format : UTF-8
Codec ID : S_TEXT/UTF8
Codec ID/Info : UTF-8 Plain Text
Duration : 52 min 15 s
Bit rate : 56 b/s
Frame rate : 0.202 FPS
Count of elements : 634
Stream size : 21.5 KiB (0%)
Language : Polish
Default : No
Forced : No

Text #30
ID : 32
Format : UTF-8
Codec ID : S_TEXT/UTF8
Codec ID/Info : UTF-8 Plain Text
Duration : 52 min 15 s
Bit rate : 56 b/s
Frame rate : 0.206 FPS
Count of elements : 646
Stream size : 21.5 KiB (0%)
Title : Brazilian
Language : Portuguese
Default : No
Forced : No

Text #31
ID : 33
Format : UTF-8
Codec ID : S_TEXT/UTF8
Codec ID/Info : UTF-8 Plain Text
Duration : 52 min 15 s
Bit rate : 60 b/s
Frame rate : 0.213 FPS
Count of elements : 667
Stream size : 23.1 KiB (0%)
Language : Portuguese
Default : No
Forced : No

Text #32
ID : 34
Format : UTF-8
Codec ID : S_TEXT/UTF8
Codec ID/Info : UTF-8 Plain Text
Duration : 52 min 27 s
Bit rate : 88 b/s
Frame rate : 0.215 FPS
Count of elements : 677
Stream size : 34.1 KiB (0%)
Language : Russian
Default : No
Forced : No

Text #33
ID : 35
Format : UTF-8
Codec ID : S_TEXT/UTF8
Codec ID/Info : UTF-8 Plain Text
Duration : 52 min 15 s
Bit rate : 57 b/s
Frame rate : 0.211 FPS
Count of elements : 660
Stream size : 21.9 KiB (0%)
Language : Slovak
Default : No
Forced : No

Text #34
ID : 36
Format : UTF-8
Codec ID : S_TEXT/UTF8
Codec ID/Info : UTF-8 Plain Text
Duration : 51 min 45 s
Bit rate : 47 b/s
Frame rate : 0.212 FPS
Count of elements : 657
Stream size : 18.1 KiB (0%)
Language : Slovenian
Default : No
Forced : No

Text #35
ID : 37
Format : UTF-8
Codec ID : S_TEXT/UTF8
Codec ID/Info : UTF-8 Plain Text
Duration : 51 min 45 s
Bit rate : 55 b/s
Frame rate : 0.198 FPS
Count of elements : 614
Stream size : 21.1 KiB (0%)
Language : Swedish
Default : No
Forced : No

Text #36
ID : 38
Format : UTF-8
Codec ID : S_TEXT/UTF8
Codec ID/Info : UTF-8 Plain Text
Duration : 51 min 45 s
Bit rate : 193 b/s
Frame rate : 0.216 FPS
Count of elements : 671
Stream size : 73.4 KiB (0%)
Language : Tamil
Default : No
Forced : No

Text #37
ID : 39
Format : UTF-8
Codec ID : S_TEXT/UTF8
Codec ID/Info : UTF-8 Plain Text
Duration : 51 min 45 s
Bit rate : 177 b/s
Frame rate : 0.216 FPS
Count of elements : 671
Stream size : 67.4 KiB (0%)
Language : Telugu
Default : No
Forced : No

Text #38
ID : 40
Format : UTF-8
Codec ID : S_TEXT/UTF8
Codec ID/Info : UTF-8 Plain Text
Duration : 51 min 45 s
Bit rate : 153 b/s
Frame rate : 0.216 FPS
Count of elements : 671
Stream size : 58.3 KiB (0%)
Language : Thai
Default : No
Forced : No

Text #39
ID : 41
Format : UTF-8
Codec ID : S_TEXT/UTF8
Codec ID/Info : UTF-8 Plain Text
Duration : 51 min 45 s
Bit rate : 59 b/s
Frame rate : 0.215 FPS
Count of elements : 669
Stream size : 22.5 KiB (0%)
Language : Turkish
Default : No
Forced : No

Text #40
ID : 42
Format : UTF-8
Codec ID : S_TEXT/UTF8
Codec ID/Info : UTF-8 Plain Text
Duration : 52 min 15 s
Bit rate : 91 b/s
Frame rate : 0.213 FPS
Count of elements : 668
Stream size : 35.1 KiB (0%)
Language : Ukrainian
Default : No
Forced : No

Text #41
ID : 43
Format : UTF-8
Codec ID : S_TEXT/UTF8
Codec ID/Info : UTF-8 Plain Text
Duration : 52 min 15 s
Bit rate : 80 b/s
Frame rate : 0.214 FPS
Count of elements : 670
Stream size : 30.9 KiB (0%)
Language : Vietnamese
Default : No
Forced : No

Text #42
ID : 44
Format : UTF-8
Codec ID : S_TEXT/UTF8
Codec ID/Info : UTF-8 Plain Text
Duration : 52 min 15 s
Bit rate : 50 b/s
Frame rate : 0.214 FPS
Count of elements : 672
Stream size : 19.5 KiB (0%)
Title : 粤语
Language : 中文
Default : No
Forced : No

下载地址

游客,如果您要查看本帖隐藏内容请回复

游客,如果您要查看本帖隐藏内容请回复

游客,如果您要查看本帖隐藏内容请回复

游客,如果您要查看本帖隐藏内容请回复




上一篇:尝试 [简繁粤中字](2022)/第三季全/4K高清版本下载
下一篇:艾拉的青春日志2.0 [简繁粤](2022)/第一季全/4K高清版本下载
回复

使用道具 举报

1

主题

1251

帖子

3771

积分

4K家园VIP

Rank: 9Rank: 9Rank: 9

积分
3771
发表于 2022-9-12 11:01:48 | 显示全部楼层
锄禾日当午,发帖真辛苦。谁知坛中餐,帖帖皆辛苦!
回复 支持 反对

使用道具 举报

0

主题

8668

帖子

2万

积分

4K家园VIP

Rank: 9Rank: 9Rank: 9

积分
20210
发表于 2022-9-12 11:07:22 | 显示全部楼层
太好啦&萬分感謝版主的無私發佈分享%
回复 支持 反对

使用道具 举报

0

主题

1381

帖子

3993

积分

4K家园VIP

Rank: 9Rank: 9Rank: 9

积分
3993
发表于 2022-9-12 11:18:37 | 显示全部楼层
好,很好,非常好!
回复 支持 反对

使用道具 举报

41

主题

1543

帖子

4461

积分

4K家园VIP

Rank: 9Rank: 9Rank: 9

积分
4461
发表于 2022-9-12 12:59:51 来自手机 | 显示全部楼层
分享的不错,希望楼主继续分享
回复 支持 反对

使用道具 举报

201

主题

1752

帖子

4818

积分

4K家园VIP

Rank: 9Rank: 9Rank: 9

积分
4818
发表于 2022-9-12 13:19:31 | 显示全部楼层
嘘,低调。
回复 支持 反对

使用道具 举报

53

主题

1549

帖子

4487

积分

4K家园VIP

Rank: 9Rank: 9Rank: 9

积分
4487
发表于 2022-9-12 13:37:37 | 显示全部楼层
支持,赞一个
回复 支持 反对

使用道具 举报

您需要登录后才可以回帖 登录 | 立即注册

本版积分规则

精彩图文
Archiver|手机版|TAG|Sitemap|新帖|专题|联系我们:邮箱: 4kjia.com@gmail.com   

4k家园   ©2019