过气万人迷 [简繁粤中字](2022)/第一季全/4K高清版本下载

[复制链接]

205

主题

228

帖子

2261

积分

版主

Rank: 7Rank: 7Rank: 7

积分
2261
 楼主| 发表于 2022-9-12 11:55:39 | 显示全部楼层 |阅读模式
本帖最后由 美剧小虾 于 2022-9-12 11:57 编辑

p2879782387_副本.jpg

◎译  名 过气万人迷 第一季 / The Heartthrob TV Changed He Didnt
◎片  名 El Galán. La TV cambió, él no
◎年  代 2022
◎产  地 墨西哥
◎类  别 喜剧
◎语  言 英语
◎上映日期 2022-06-08(墨西哥)
◎IMDb评分 7.0/10 from 51 users
◎IMDb链接 https://www.imdb.com/title/tt14075308/
◎豆瓣评分 0/ 10 from 0 users
◎豆瓣链接 https://movie.douban.com/subject/36087059/
◎集  数 12
◎导  演 马里亚诺·寇恩 Mariano Cohn
◎编  剧 马里亚诺·寇恩 Mariano Cohn
◎主  演 亨伯托·苏里塔 Humberto Zurita
                   达里奥·里波尔 Darío Ripoll
                   萨拉·马尔多纳多 Sara Maldonado
                   帕特丽夏·雷耶斯 Patricia Reyes Spíndola
                   安娜·克劳迪娅·塔兰孔 Ana Claudia Talancón
                   埃内斯托·拉瓜迪亚 Ernesto Laguardia
                   多洛雷斯埃雷迪亚 Dolores Heredia
                   芭芭拉·佩雷亚 Bárbara Perea
                   美国·巴尔德斯 América Valdés
                   塞巴斯蒂安·苏利塔 Sebastián Zurita
                   路易斯·伯穆德斯 Luis Bermudez
                   艾米·塞尔玛 Amy Selma
                   塞尔吉奥·古铁雷斯 Sergio Gutierrez  
                   罗伯托·泰洛 Roberto Tello
                   丹·马奎斯 Dan Márquez
                   毛里西奥·德蒙特拉诺 Mauricio de Montellano
                   保拉·塞拉诺 Paula Serrano
                   鲁本·萨莫拉 Ruben Zamora



下载地址:


         一个肥皂剧万人迷,几乎失去了所有的名声,在疯狂的灾难中努力寻找自己在世界上的位置。
Video
ID : 1
Format : HEVC
Format/Info : High Efficiency Video Coding
Format profile : Main 10@L5@High
HDR format : SMPTE ST 2086, HDR10 compatible
Codec ID : V_MPEGH/ISO/HEVC
Duration : 38 min 24 s
Bit rate : 16.1 Mb/s
Width : 3 840 pixels
Height : 2 160 pixels
Display aspect ratio : 16:9
Frame rate mode : Constant
Frame rate : 23.976 (24000/1001) FPS
Color space : YUV
Chroma subsampling : 4:2:0
Bit depth : 10 bits
Bits/(Pixel*Frame) : 0.081
Stream size : 4.33 GiB (98%)
Language : Spanish
Default : Yes
Forced : No
Color range : Limited
Color primaries : BT.2020
Transfer characteristics : PQ
Matrix coefficients : BT.2020 non-constant
Mastering display color primaries : BT.2020
Mastering display luminance : min: 0.0001 cd/m2, max: 1000 cd/m2

Audio
ID : 2
Format : E-AC-3
Format/Info : Enhanced AC-3
Commercial name : Dolby Digital Plus
Codec ID : A_EAC3
Duration : 38 min 24 s
Bit rate mode : Constant
Bit rate : 256 kb/s
Channel(s) : 6 channels
Channel layout : L R C LFE Ls Rs
Sampling rate : 48.0 kHz
Frame rate : 31.250 FPS (1536 SPF)
Compression mode : Lossy
Stream size : 70.3 MiB (2%)
Language : Spanish
Service kind : Complete Main
Default : Yes
Forced : No

Text #1
ID : 3
Format : UTF-8
Codec ID : S_TEXT/UTF8
Codec ID/Info : UTF-8 Plain Text
Duration : 37 min 25 s
Bit rate : 81 b/s
Frame rate : 0.332 FPS
Count of elements : 746
Stream size : 22.2 KiB (0%)
Title : English (forced)
Language : English
Default : Yes
Forced : Yes

Text #2
ID : 4
Format : UTF-8
Codec ID : S_TEXT/UTF8
Codec ID/Info : UTF-8 Plain Text
Duration : 38 min 14 s
Bit rate : 64 b/s
Frame rate : 0.273 FPS
Count of elements : 627
Stream size : 18.0 KiB (0%)
Title : Español (Latinoamericano) [CC]
Language : Spanish
Default : No
Forced : No

Text #3
ID : 5
Format : UTF-8
Codec ID : S_TEXT/UTF8
Codec ID/Info : UTF-8 Plain Text
Duration : 38 min 18 s
Bit rate : 55 b/s
Frame rate : 0.235 FPS
Count of elements : 539
Stream size : 15.6 KiB (0%)
Title : Čeština
Language : Czech
Default : No
Forced : No

Text #4
ID : 6
Format : UTF-8
Codec ID : S_TEXT/UTF8
Codec ID/Info : UTF-8 Plain Text
Duration : 38 min 18 s
Bit rate : 56 b/s
Frame rate : 0.234 FPS
Count of elements : 538
Stream size : 15.7 KiB (0%)
Title : Dansk
Language : Danish
Default : No
Forced : No

Text #5
ID : 7
Format : UTF-8
Codec ID : S_TEXT/UTF8
Codec ID/Info : UTF-8 Plain Text
Duration : 38 min 18 s
Bit rate : 55 b/s
Frame rate : 0.234 FPS
Count of elements : 537
Stream size : 15.6 KiB (0%)
Title : Deutsch
Language : German
Default : No
Forced : No

Text #6
ID : 8
Format : UTF-8
Codec ID : S_TEXT/UTF8
Codec ID/Info : UTF-8 Plain Text
Duration : 38 min 18 s
Bit rate : 94 b/s
Frame rate : 0.235 FPS
Count of elements : 539
Stream size : 26.6 KiB (0%)
Title : Greek
Language : Greek
Default : No
Forced : No

Text #7
ID : 9
Format : UTF-8
Codec ID : S_TEXT/UTF8
Codec ID/Info : UTF-8 Plain Text
Duration : 38 min 18 s
Bit rate : 58 b/s
Frame rate : 0.234 FPS
Count of elements : 538
Stream size : 16.4 KiB (0%)
Title : Suomi
Language : Finnish
Default : No
Forced : No

Text #8
ID : 10
Format : UTF-8
Codec ID : S_TEXT/UTF8
Codec ID/Info : UTF-8 Plain Text
Duration : 38 min 18 s
Bit rate : 60 b/s
Frame rate : 0.236 FPS
Count of elements : 542
Stream size : 16.8 KiB (0%)
Title : Français
Language : French
Default : No
Forced : No

Text #9
ID : 11
Format : UTF-8
Codec ID : S_TEXT/UTF8
Codec ID/Info : UTF-8 Plain Text
Duration : 38 min 18 s
Bit rate : 58 b/s
Frame rate : 0.234 FPS
Count of elements : 538
Stream size : 16.5 KiB (0%)
Title : Magyar
Language : Hungarian
Default : No
Forced : No

Text #10
ID : 12
Format : UTF-8
Codec ID : S_TEXT/UTF8
Codec ID/Info : UTF-8 Plain Text
Duration : 38 min 18 s
Bit rate : 55 b/s
Frame rate : 0.234 FPS
Count of elements : 537
Stream size : 15.7 KiB (0%)
Title : Italiano
Language : Italian
Default : No
Forced : No

Text #11
ID : 13
Format : UTF-8
Codec ID : S_TEXT/UTF8
Codec ID/Info : UTF-8 Plain Text
Duration : 38 min 18 s
Bit rate : 56 b/s
Frame rate : 0.230 FPS
Count of elements : 528
Stream size : 15.8 KiB (0%)
Title : Japanese
Language : Japanese
Default : No
Forced : No

Text #12
ID : 14
Format : UTF-8
Codec ID : S_TEXT/UTF8
Codec ID/Info : UTF-8 Plain Text
Duration : 38 min 18 s
Bit rate : 64 b/s
Frame rate : 0.235 FPS
Count of elements : 539
Stream size : 18.2 KiB (0%)
Title : Korean
Language : Korean
Default : No
Forced : No

Text #13
ID : 15
Format : UTF-8
Codec ID : S_TEXT/UTF8
Codec ID/Info : UTF-8 Plain Text
Duration : 38 min 18 s
Bit rate : 53 b/s
Frame rate : 0.232 FPS
Count of elements : 534
Stream size : 15.0 KiB (0%)
Title : Nederlands
Language : Dutch
Default : No
Forced : No

Text #14
ID : 16
Format : UTF-8
Codec ID : S_TEXT/UTF8
Codec ID/Info : UTF-8 Plain Text
Duration : 38 min 18 s
Bit rate : 56 b/s
Frame rate : 0.233 FPS
Count of elements : 535
Stream size : 15.8 KiB (0%)
Title : Norsk
Language : Norwegian
Default : No
Forced : No

Text #15
ID : 17
Format : UTF-8
Codec ID : S_TEXT/UTF8
Codec ID/Info : UTF-8 Plain Text
Duration : 38 min 18 s
Bit rate : 54 b/s
Frame rate : 0.232 FPS
Count of elements : 533
Stream size : 15.2 KiB (0%)
Title : Polski
Language : Polish
Default : No
Forced : No

Text #16
ID : 18
Format : UTF-8
Codec ID : S_TEXT/UTF8
Codec ID/Info : UTF-8 Plain Text
Duration : 38 min 18 s
Bit rate : 56 b/s
Frame rate : 0.232 FPS
Count of elements : 534
Stream size : 15.8 KiB (0%)
Title : Português (Brasil)
Language : Portuguese
Default : No
Forced : No

Text #17
ID : 19
Format : UTF-8
Codec ID : S_TEXT/UTF8
Codec ID/Info : UTF-8 Plain Text
Duration : 38 min 18 s
Bit rate : 54 b/s
Frame rate : 0.234 FPS
Count of elements : 537
Stream size : 15.4 KiB (0%)
Title : Português
Language : Portuguese
Default : No
Forced : No

Text #18
ID : 20
Format : UTF-8
Codec ID : S_TEXT/UTF8
Codec ID/Info : UTF-8 Plain Text
Duration : 38 min 18 s
Bit rate : 57 b/s
Frame rate : 0.234 FPS
Count of elements : 537
Stream size : 16.0 KiB (0%)
Title : Română
Language : Romanian
Default : No
Forced : No

Text #19
ID : 21
Format : UTF-8
Codec ID : S_TEXT/UTF8
Codec ID/Info : UTF-8 Plain Text
Duration : 38 min 18 s
Bit rate : 55 b/s
Frame rate : 0.234 FPS
Count of elements : 537
Stream size : 15.7 KiB (0%)
Title : Svenska
Language : Swedish
Default : No
Forced : No

Text #20
ID : 22
Format : UTF-8
Codec ID : S_TEXT/UTF8
Codec ID/Info : UTF-8 Plain Text
Duration : 37 min 17 s
Bit rate : 58 b/s
Frame rate : 0.239 FPS
Count of elements : 535
Stream size : 16.0 KiB (0%)
Title : Türkçe
Language : Turkish
Default : No
Forced : No

Text #21
ID : 23
Format : UTF-8
Codec ID : S_TEXT/UTF8
Codec ID/Info : UTF-8 Plain Text
Duration : 37 min 17 s
Bit rate : 50 b/s
Frame rate : 0.240 FPS
Count of elements : 537
Stream size : 13.9 KiB (0%)
Title : 中文(简体)
Language : Chinese
Default : No
Forced : No

Text #22
ID : 24
Format : UTF-8
Codec ID : S_TEXT/UTF8
Codec ID/Info : UTF-8 Plain Text
Duration : 38 min 18 s
Bit rate : 52 b/s
Frame rate : 0.234 FPS
Count of elements : 538
Stream size : 14.6 KiB (0%)
Title : 中文(繁体)
Language : Chinese
Default : No
Forced : No

Text #23
ID : 25
Format : UTF-8
Codec ID : S_TEXT/UTF8
Codec ID/Info : UTF-8 Plain Text
Duration : 38 min 18 s
Bit rate : 49 b/s
Frame rate : 0.234 FPS
Count of elements : 537
Stream size : 13.8 KiB (0%)
Title : 中文(粤语)
Language : 中文
Default : No
Forced : No

下载地址

游客,如果您要查看本帖隐藏内容请回复





上一篇:艾拉的青春日志2.0 [简繁粤](2022)/第一季全/4K高清版本下载
下一篇:芝加哥故事 / The Chi(2022)/第五季全/4K高清版本下载
回复

使用道具 举报

19

主题

1255

帖子

3765

积分

4K家园VIP

Rank: 9Rank: 9Rank: 9

积分
3765
发表于 2022-9-12 11:57:50 | 显示全部楼层
路过的帮顶
回复 支持 反对

使用道具 举报

0

主题

8668

帖子

2万

积分

4K家园VIP

Rank: 9Rank: 9Rank: 9

积分
20210
发表于 2022-9-12 12:45:49 | 显示全部楼层
太好啦&萬分感謝版主的無私發佈分享%
回复 支持 反对

使用道具 举报

48

主题

1548

帖子

4516

积分

4K家园VIP

Rank: 9Rank: 9Rank: 9

积分
4516
发表于 2022-9-13 00:33:44 | 显示全部楼层
回复 支持 反对

使用道具 举报

2

主题

1432

帖子

4269

积分

4K家园VIP

Rank: 9Rank: 9Rank: 9

积分
4269
发表于 2022-9-13 23:33:36 | 显示全部楼层
鄙视楼下的顶帖没我快,哈哈
回复 支持 反对

使用道具 举报

1

主题

1314

帖子

3968

积分

4K家园VIP

Rank: 9Rank: 9Rank: 9

积分
3968
发表于 2022-9-17 21:32:06 | 显示全部楼层
路过 帮顶 嘿嘿
回复 支持 反对

使用道具 举报

51

主题

1420

帖子

4092

积分

4K家园VIP

Rank: 9Rank: 9Rank: 9

积分
4092
发表于 2022-9-17 22:23:47 | 显示全部楼层
纯粹路过,没任何兴趣,仅仅是看在老用户份上回复一下
回复 支持 反对

使用道具 举报

您需要登录后才可以回帖 登录 | 立即注册

本版积分规则

精彩图文
Archiver|手机版|TAG|Sitemap|新帖|专题|联系我们:邮箱: 4kjia.com@gmail.com   

4k家园   ©2019