[4K电影] 华尔街[简粤中字] / Wall Street (1987) 4K高清版本下载

[复制链接]

2333

主题

2482

帖子

1万

积分

超级版主

Rank: 8Rank: 8

积分
17982
 楼主| 发表于 2022-9-17 09:02:52 | 显示全部楼层 |阅读模式
QQ图片20220917085701_副本.png

◎译  名 华尔街
◎片  名 Wall Street
◎年  代 1987
◎产  地 美国
◎类  别 剧情/犯罪
◎语  言 英语
◎上映日期 1987-12-11(美国)
◎IMDb评分 7.3/10 from 155603 users
◎IMDb链接 https://www.imdb.com/title/tt0094291/
◎豆瓣评分 8.2/10 from 53702 users
◎豆瓣链接 https://movie.douban.com/subject/1292531/
◎导  演 奥利佛·斯通 Oliver Stone
◎编  剧 斯坦利·韦泽 Stanley Weiser / 奥利佛·斯通 Oliver Stone
◎主  演 查理·辛 Charlie Sheen
       迈克尔·道格拉斯 Michael Douglas
       达丽尔·汉纳 Daryl Hannah
       塔马拉·图尼 Tamara Tunie
       约翰·C·麦金雷 John C. McGinley
       詹姆斯·斯派德 James Spader
       马丁·辛 Martin Sheen
       帕特里克·威瑟斯 Patrick Weathers
       塞西莉亚·派克 Cecilia Peck
       保罗·吉尔福伊尔 Paul Guilfoyle
       格兰特·肖德 Grant Shaud
       绍尔·鲁宾内克 Saul Rubinek
       西恩·斯通 Sean Stone
       西尔维娅·迈尔斯 Sylvia Miles
       理查德·戴萨特 Richard Dysart
       米莉·佩金斯 Millie Perkins
       唐尼凯尔 Donnie Kehr
       肖恩·杨 Sean Young
       特伦斯·斯坦普 Terence Stamp
       劳伦·汤姆 Lauren Tom
       肯·利佩尔 Ken Lipper
       奥利佛·斯通 Oliver Stone
       富兰克林·科弗 Franklin Cover
       哈尔·霍尔布鲁克 Hal Holbrook
       詹姆斯·凯伦 James Karen
       乔什·莫斯特尔 Josh Mostel
       安·塔尔曼 Ann Talman
       安德莉娅·汤普森 Andrea Thompson


◎简  介


  美国华尔街股市大亨戈登·盖柯(迈克尔·道格拉斯 Michael Douglas 饰)在金融界叱咤风云,人人敬畏。在随时随地上演的金融大战中,他总能百战百胜。初出茅庐的纽约大学毕业生巴德·福克斯(查理·辛 Charlie Sheen 饰)野心勃勃,却空有满腔热血而投报无门。 一个偶然的机会,他接触到盖柯,用一个股市内幕情报帮其赚了笔大钱而受到重用,成为盖柯的合伙人之一。在对金钱、美女、上流社会的渴求下,巴德开始利用身边所有的人来刺探一切有利的商业情报,为自己获利。直到在一场收购他父亲所工作的蓝星航空公司的过程中,贪得无厌的盖柯出尔反尔想要解散并卖掉它,这让尚有良知的巴德幡然醒悟。他利用盖柯教会他的一切股市战术,狠狠地反击了大亨盖柯,帮助父亲拯救了蓝星航空。然而,因为违法操控股票内线交易,巴德不得不面临着冰冷的铁窗……

Video
ID : 1
Format : HEVC
Format/Info : High Efficiency Video Coding
Format profile : Main 10@L5@High
Codec ID : V_MPEGH/ISO/HEVC
Duration : 2 h 5 min
Bit rate : 24.9 Mb/s
Width : 3 840 pixels
Height : 2 160 pixels
Display aspect ratio : 16:9
Frame rate mode : Constant
Frame rate : 23.976 (24000/1001) FPS
Color space : YUV
Chroma subsampling : 4:2:0 (Type 2)
Bit depth : 10 bits
Bits/(Pixel*Frame) : 0.125
Stream size : 21.9 GiB (85%)
Language : English
Default : Yes
Forced : No
Color range : Limited
Color primaries : BT.709
Transfer characteristics : BT.709
Matrix coefficients : BT.709

Audio #1
ID : 2
Format : DTS XLL
Format/Info : Digital Theater Systems
Commercial name : DTS-HD Master Audio
Codec ID : A_DTS
Duration : 2 h 5 min
Bit rate mode : Variable
Bit rate : 3 593 kb/s
Channel(s) : 6 channels
Channel layout : C L R Ls Rs LFE
Sampling rate : 48.0 kHz
Frame rate : 93.750 FPS (512 SPF)
Bit depth : 24 bits
Compression mode : Lossless
Delay relative to video : 1 s 1 ms
Stream size : 3.16 GiB (12%)
Language : English
Default : Yes
Forced : No

Audio #2
ID : 3
Format : AC-3
Format/Info : Audio Coding 3
Commercial name : Dolby Digital
Codec ID : A_AC3
Duration : 2 h 5 min
Bit rate mode : Constant
Bit rate : 640 kb/s
Channel(s) : 6 channels
Channel layout : L R C LFE Ls Rs
Sampling rate : 48.0 kHz
Frame rate : 31.250 FPS (1536 SPF)
Compression mode : Lossy
Stream size : 576 MiB (2%)
Language : English
Service kind : Complete Main
Default : No
Forced : No

Audio #3
ID : 4
Format : AC-3
Format/Info : Audio Coding 3
Commercial name : Dolby Digital
Codec ID : A_AC3
Duration : 2 h 5 min
Bit rate mode : Constant
Bit rate : 224 kb/s
Channel(s) : 2 channels
Channel layout : L R
Sampling rate : 48.0 kHz
Frame rate : 31.250 FPS (1536 SPF)
Compression mode : Lossy
Delay relative to video : 1 s 1 ms
Stream size : 201 MiB (1%)
Title : Commentary by Oliver Stone
Language : English
Service kind : Complete Main
Default : No
Forced : No

Text #1
ID : 5
Format : UTF-8
Codec ID : S_TEXT/UTF8
Codec ID/Info : UTF-8 Plain Text
Duration : 1 h 57 min
Bit rate : 92 b/s
Frame rate : 0.274 FPS
Count of elements : 1931
Stream size : 79.3 KiB (0%)
Language : English
Default : Yes
Forced : No

Text #2
ID : 6
Format : UTF-8
Codec ID : S_TEXT/UTF8
Codec ID/Info : UTF-8 Plain Text
Duration : 2 h 5 min
Bit rate : 94 b/s
Frame rate : 0.283 FPS
Count of elements : 2137
Stream size : 87.1 KiB (0%)
Title : SDH
Language : English
Default : No
Forced : No

Text #3
ID : 7
Format : UTF-8
Codec ID : S_TEXT/UTF8
Codec ID/Info : UTF-8 Plain Text
Duration : 2 h 4 min
Bit rate : 109 b/s
Frame rate : 0.212 FPS
Count of elements : 1580
Stream size : 99.9 KiB (0%)
Language : Arabic
Default : No
Forced : No

Text #4
ID : 8
Format : UTF-8
Codec ID : S_TEXT/UTF8
Codec ID/Info : UTF-8 Plain Text
Duration : 1 h 59 min
Bit rate : 62 b/s
Frame rate : 0.218 FPS
Count of elements : 1571
Stream size : 54.8 KiB (0%)
Title : 简体
Language : 中文
Default : No
Forced : No


Text #5
ID : 9
Format : UTF-8
Codec ID : S_TEXT/UTF8
Codec ID/Info : UTF-8 Plain Text
Duration : 2 h 3 min
Bit rate : 78 b/s
Frame rate : 0.197 FPS
Count of elements : 1459
Stream size : 71.2 KiB (0%)
Language : Czech
Default : No
Forced : No

Text #6
ID : 10
Format : UTF-8
Codec ID : S_TEXT/UTF8
Codec ID/Info : UTF-8 Plain Text
Duration : 2 h 3 min
Bit rate : 78 b/s
Frame rate : 0.197 FPS
Count of elements : 1459
Stream size : 71.1 KiB (0%)
Language : Danish
Default : No
Forced : No

Text #7
ID : 11
Format : UTF-8
Codec ID : S_TEXT/UTF8
Codec ID/Info : UTF-8 Plain Text
Duration : 1 h 58 min
Bit rate : 75 b/s
Frame rate : 0.170 FPS
Count of elements : 1210
Stream size : 65.6 KiB (0%)
Language : German
Default : No
Forced : No

Text #8
ID : 12
Format : UTF-8
Codec ID : S_TEXT/UTF8
Codec ID/Info : UTF-8 Plain Text
Duration : 2 h 3 min
Bit rate : 135 b/s
Frame rate : 0.197 FPS
Count of elements : 1459
Stream size : 123 KiB (0%)
Language : Greek
Default : No
Forced : No

Text #9
ID : 13
Format : UTF-8
Codec ID : S_TEXT/UTF8
Codec ID/Info : UTF-8 Plain Text
Duration : 2 h 3 min
Bit rate : 78 b/s
Frame rate : 0.197 FPS
Count of elements : 1458
Stream size : 71.4 KiB (0%)
Title : Latin American
Language : Spanish
Default : No
Forced : No

Text #10
ID : 14
Format : UTF-8
Codec ID : S_TEXT/UTF8
Codec ID/Info : UTF-8 Plain Text
Duration : 2 h 3 min
Bit rate : 71 b/s
Frame rate : 0.197 FPS
Count of elements : 1459
Stream size : 64.8 KiB (0%)
Language : Finnish
Default : No
Forced : No

Text #11
ID : 15
Format : UTF-8
Codec ID : S_TEXT/UTF8
Codec ID/Info : UTF-8 Plain Text
Duration : 2 h 3 min
Bit rate : 67 b/s
Frame rate : 0.194 FPS
Count of elements : 1431
Stream size : 60.8 KiB (0%)
Language : French
Default : No
Forced : No

Text #12
ID : 16
Format : UTF-8
Codec ID : S_TEXT/UTF8
Codec ID/Info : UTF-8 Plain Text
Duration : 2 h 3 min
Bit rate : 106 b/s
Frame rate : 0.197 FPS
Count of elements : 1460
Stream size : 96.7 KiB (0%)
Language : Hebrew
Default : No
Forced : No

Text #13
ID : 17
Format : UTF-8
Codec ID : S_TEXT/UTF8
Codec ID/Info : UTF-8 Plain Text
Duration : 2 h 3 min
Bit rate : 65 b/s
Frame rate : 0.197 FPS
Count of elements : 1459
Stream size : 58.8 KiB (0%)
Language : Hungarian
Default : No
Forced : No

Text #14
ID : 18
Format : UTF-8
Codec ID : S_TEXT/UTF8
Codec ID/Info : UTF-8 Plain Text
Duration : 2 h 0 min
Bit rate : 83 b/s
Frame rate : 0.270 FPS
Count of elements : 1948
Stream size : 73.8 KiB (0%)
Language : Indonesian
Default : No
Forced : No

Text #15
ID : 19
Format : UTF-8
Codec ID : S_TEXT/UTF8
Codec ID/Info : UTF-8 Plain Text
Duration : 2 h 3 min
Bit rate : 75 b/s
Frame rate : 0.197 FPS
Count of elements : 1459
Stream size : 68.4 KiB (0%)
Language : Icelandic
Default : No
Forced : No

Text #16
ID : 20
Format : UTF-8
Codec ID : S_TEXT/UTF8
Codec ID/Info : UTF-8 Plain Text
Duration : 2 h 3 min
Bit rate : 73 b/s
Frame rate : 0.197 FPS
Count of elements : 1460
Stream size : 66.8 KiB (0%)
Language : Italian
Default : No
Forced : No

Text #17
ID : 21
Format : UTF-8
Codec ID : S_TEXT/UTF8
Codec ID/Info : UTF-8 Plain Text
Duration : 2 h 0 min
Bit rate : 70 b/s
Frame rate : 0.214 FPS
Count of elements : 1546
Stream size : 61.9 KiB (0%)
Language : Korean
Default : No
Forced : No

Text #18
ID : 22
Format : UTF-8
Codec ID : S_TEXT/UTF8
Codec ID/Info : UTF-8 Plain Text
Duration : 2 h 3 min
Bit rate : 56 b/s
Frame rate : 0.190 FPS
Count of elements : 1405
Stream size : 50.6 KiB (0%)
Language : Dutch
Default : No
Forced : No

Text #19
ID : 23
Format : UTF-8
Codec ID : S_TEXT/UTF8
Codec ID/Info : UTF-8 Plain Text
Duration : 2 h 3 min
Bit rate : 78 b/s
Frame rate : 0.197 FPS
Count of elements : 1459
Stream size : 70.5 KiB (0%)
Language : Norwegian
Default : No
Forced : No

Text #20
ID : 24
Format : UTF-8
Codec ID : S_TEXT/UTF8
Codec ID/Info : UTF-8 Plain Text
Duration : 2 h 3 min
Bit rate : 76 b/s
Frame rate : 0.197 FPS
Count of elements : 1459
Stream size : 69.6 KiB (0%)
Language : Polish
Default : No
Forced : No

Text #21
ID : 25
Format : UTF-8
Codec ID : S_TEXT/UTF8
Codec ID/Info : UTF-8 Plain Text
Duration : 2 h 3 min
Bit rate : 81 b/s
Frame rate : 0.197 FPS
Count of elements : 1461
Stream size : 73.9 KiB (0%)
Title : Brazilian
Language : Portuguese
Default : No
Forced : No

Text #22
ID : 26
Format : UTF-8
Codec ID : S_TEXT/UTF8
Codec ID/Info : UTF-8 Plain Text
Duration : 1 h 59 min
Bit rate : 114 b/s
Frame rate : 0.192 FPS
Count of elements : 1379
Stream size : 100 KiB (0%)
Language : Russian
Default : No
Forced : No

Text #23
ID : 27
Format : UTF-8
Codec ID : S_TEXT/UTF8
Codec ID/Info : UTF-8 Plain Text
Duration : 2 h 3 min
Bit rate : 78 b/s
Frame rate : 0.197 FPS
Count of elements : 1459
Stream size : 70.9 KiB (0%)
Language : Swedish
Default : No
Forced : No

Text #24
ID : 28
Format : UTF-8
Codec ID : S_TEXT/UTF8
Codec ID/Info : UTF-8 Plain Text
Duration : 2 h 3 min
Bit rate : 137 b/s
Frame rate : 0.246 FPS
Count of elements : 1819
Stream size : 124 KiB (0%)
Language : Thai
Default : No
Forced : No

Text #25
ID : 29
Format : UTF-8
Codec ID : S_TEXT/UTF8
Codec ID/Info : UTF-8 Plain Text
Duration : 2 h 3 min
Bit rate : 111 b/s
Frame rate : 0.265 FPS
Count of elements : 1963
Stream size : 101 KiB (0%)
Language : Vietnamese
Default : No
Forced : No

Text #26
ID : 30
Format : UTF-8
Codec ID : S_TEXT/UTF8
Codec ID/Info : UTF-8 Plain Text
Duration : 2 h 2 min
Bit rate : 50 b/s
Frame rate : 0.157 FPS
Count of elements : 1158
Stream size : 45.6 KiB (0%)
Title : 粤语
Language : 中文
Default : No
Forced : No


Menu
00:00:02.000 : en:Main Titles Fly Me to the Moon
00:04:27.000 : en:Off and Running
00:09:05.000 : en:Unknowing Tip
00:13:23.000 : en:Gordon Gekko
00:23:21.000 : en:Bagging the Elephant
00:26:20.000 : en:A Gift from Gordon
00:28:41.000 : en:Business Philosophy
00:33:28.000 : en:Becoming a Player
00:37:07.000 : en:Valuable Commodity
00:40:43.000 : en:A Sure Thing
00:44:06.000 : en:Buyback Offer
00:52:42.000 : en:Wakeup Call
00:56:46.000 : en:Maintenance Crew
00:59:50.000 : en:A Safe Distance
01:05:01.000 : en:Upward Mobility
01:07:15.000 : en:The High Life
01:13:19.000 : en:Greed Works
01:19:44.000 : en:Bud's Proposal
01:22:12.000 : en:Bluestar Meeting
01:30:32.000 : en:Red Flag
01:32:17.000 : eniquidation
01:34:20.000 : en:We Make the Rules
01:38:27.000 : en:Greater Need
01:42:48.000 : enermission
01:45:27.000 : en:Countermeasures
01:47:01.000 : en:Stock Manipulation
01:53:08.000 : en:The Abyss
01:59:07.000 : en:The Best Thing End Titles


资源速度为零或资源敏感被和谐时,推荐使用qBittorrent等下载软件,有条件的推荐115更好的下载软件!

下载地址:


游客,如果您要查看本帖隐藏内容请回复







上一篇:三千年的思念 (2022) 4K高清版本下载
下一篇:罪犯艾米丽 / Emily the Criminal (2022) 4K高清版本下载
回复

使用道具 举报

2

主题

1681

帖子

4683

积分

4K家园VIP

Rank: 9Rank: 9Rank: 9

积分
4683
发表于 2022-9-17 09:03:02 来自手机 | 显示全部楼层
秀起来~
回复 支持 反对

使用道具 举报

0

主题

28

帖子

186

积分

新手上路

Rank: 1

积分
186
发表于 2022-9-17 09:43:13 | 显示全部楼层
好神奇的电影!!!!!!!
回复 支持 反对

使用道具 举报

1

主题

1397

帖子

3997

积分

4K家园VIP

Rank: 9Rank: 9Rank: 9

积分
3997
发表于 2022-9-17 16:19:39 来自手机 | 显示全部楼层
前排支持下
回复 支持 反对

使用道具 举报

0

主题

3

帖子

16

积分

新手上路

Rank: 1

积分
16
发表于 2022-9-17 22:25:49 | 显示全部楼层

很好看的电影
回复 支持 反对

使用道具 举报

47

主题

1494

帖子

4300

积分

4K家园VIP

Rank: 9Rank: 9Rank: 9

积分
4300
发表于 2022-9-19 22:58:35 | 显示全部楼层
支持,赞一个
回复 支持 反对

使用道具 举报

48

主题

1608

帖子

4640

积分

4K家园VIP

Rank: 9Rank: 9Rank: 9

积分
4640
发表于 2022-9-20 15:10:26 来自手机 | 显示全部楼层
支持一下楼主发表的内容
回复 支持 反对

使用道具 举报

1

主题

1173

帖子

3539

积分

4K家园VIP

Rank: 9Rank: 9Rank: 9

积分
3539
发表于 7 天前 | 显示全部楼层
高手云集 果断围观
回复 支持 反对

使用道具 举报

您需要登录后才可以回帖 登录 | 立即注册

本版积分规则

精彩图文
Archiver|手机版|TAG|Sitemap|新帖|专题|联系我们:邮箱: 4kjia.com@gmail.com   

4k家园   ©2019