[4K电影] 沙地传奇[简繁中字] / The Sandlot (1993) 4K高清版本下载

[复制链接]

2327

主题

2476

帖子

1万

积分

超级版主

Rank: 8Rank: 8

积分
17940
 楼主| 发表于 2022-9-17 10:20:51 | 显示全部楼层 |阅读模式
本帖最后由 最爱4K哟 于 2022-9-17 10:25 编辑

QQ图片20220917101945_副本.png

◎标  题 沙地传奇
◎译  名 难忘的夏天
◎片  名 The Sandlot
◎年  代 1993
◎产  地 美国
◎类  别 剧情 / 喜剧 / 家庭 / 运动
◎语  言 英语
◎上映日期 1993-04-07
◎IMDb评分 7.8/10 from 91987 users
◎IMDb链接 https://www.imdb.com/title/tt0108037/
◎豆瓣评分 8.2/10 from 650 users
◎豆瓣链接 https://movie.douban.com/subject/1303786/
◎片  长 101 分钟
◎导  演 大卫·M·埃文斯 David M. Evans
◎编  剧 大卫·M·埃文斯 David M. Evans
◎演  员 汤姆·盖里 Tom Guiry
       迈克·维塔尔 Mike Vitar
       帕特里克·瑞纳 Patrick Renna
       威尔·霍纳夫 Wil Horneff
       艾利斯·霍华德 Arliss Howard
       维克多·迪马提亚 Victor DiMattia
       大卫·M·埃文斯 David M. Evans
       凯伦·阿兰 Karen Allen
       丹尼斯·利瑞 Denis Leary
       布兰登·昆恩·亚当斯 Brandon Quintin Adams
       詹姆斯·厄尔·琼斯 James Earl Jones
       Chris Astoyan Chris Astoyan
       Maury Wills Maury Wills
       Marty York Marty York
       Grant Gelt Grant Gelt
       基思·坎贝尔 Keith Campbell
       昌西·莱奥普拉迪 Chauncey Leopardi
       阿特·拉夫勒 Art LaFleur
       Herb Muller Herb Muller
       Shane Obedzinski Shane Obedzinski
       Pablo P. Vitar Pablo P. Vitar
      玛丽·谢尔顿 Marley Shelton
       Chris Zarpas Chris Zarpas
       大卫·纽曼 David Newman
       Anthony B. Richmond Anthony B. Richmond
       Michael A. Stevenson Michael A. Stevenson
       Shari Rhodes Shari Rhodes
       Marc Dabe Marc Dabe
       Grania Preston Grania Preston
       James MacKinnon James MacKinnon
       Leslie Ann Anderson Leslie Ann Anderson
       乔尔·哈罗 Joel Harlow
       皮特·汉森 Pete Hanson
       马克·尼尔姆斯 Mark Nelmes
       亚当·霍华德 Adam Howard


◎简  介


  斯科蒂随改嫁的母亲来到了人生地不熟的小镇,八个小男孩经常在小镇的一块废弃的操场打棒球。斯科蒂和八个小男孩中的头儿——球技高超的本尼交上了朋友。性格腼腆,对棒球一无所知的斯科蒂在本尼的帮助下,渐渐地融入了这个集体,同他们建立了兄弟般的友谊。就在那个夏天,就是那段友情,成了孩子们心中永远的回忆。

Video
ID : 1
Format : HEVC
Format/Info : High Efficiency Video Coding
Format profile : Main 10@L5@Main
Codec ID : V_MPEGH/ISO/HEVC
Duration : 1 h 41 min
Bit rate : 24.9 Mb/s
Width : 3 840 pixels
Height : 2 160 pixels
Display aspect ratio : 16:9
Frame rate mode : Constant
Frame rate : 23.976 (24000/1001) FPS
Color space : YUV
Chroma subsampling : 4:2:0 (Type 2)
Bit depth : 10 bits
Bits/(Pixel*Frame) : 0.125
Stream size : 17.6 GiB (99%)
Language : English
Default : Yes
Forced : No
Color range : Limited
Color primaries : BT.709
Transfer characteristics : BT.709
Matrix coefficients : BT.709

Audio
ID : 2
Format : E-AC-3
Format/Info : Enhanced AC-3
Commercial name : Dolby Digital Plus
Codec ID : A_EAC3
Duration : 1 h 41 min
Bit rate mode : Constant
Bit rate : 256 kb/s
Channel(s) : 6 channels
Channel layout : L R C LFE Ls Rs
Sampling rate : 48.0 kHz
Frame rate : 31.250 FPS (1536 SPF)
Compression mode : Lossy
Stream size : 185 MiB (1%)
Language : English
Service kind : Complete Main
Default : Yes
Forced : No

Text #1
ID : 3
Format : UTF-8
Codec ID : S_TEXT/UTF8
Codec ID/Info : UTF-8 Plain Text
Duration : 1 h 35 min
Bit rate : 55 b/s
Frame rate : 0.226 FPS
Count of elements : 1298
Stream size : 39.1 KiB (0%)
Language : English
Default : No
Forced : No

Text #2
ID : 4
Format : UTF-8
Codec ID : S_TEXT/UTF8
Codec ID/Info : UTF-8 Plain Text
Duration : 1 h 36 min
Bit rate : 65 b/s
Frame rate : 0.276 FPS
Count of elements : 1590
Stream size : 46.1 KiB (0%)
Title : SDH
Language : English
Default : No
Forced : No

Text #3
ID : 5
Format : UTF-8
Codec ID : S_TEXT/UTF8
Codec ID/Info : UTF-8 Plain Text
Duration : 1 h 40 min
Bit rate : 43 b/s
Frame rate : 0.172 FPS
Count of elements : 1035
Stream size : 31.7 KiB (0%)
Language : Danish
Default : No
Forced : No

Text #4
ID : 6
Format : UTF-8
Codec ID : S_TEXT/UTF8
Codec ID/Info : UTF-8 Plain Text
Duration : 1 h 40 min
Bit rate : 44 b/s
Frame rate : 0.134 FPS
Count of elements : 809
Stream size : 32.6 KiB (0%)
Language : German
Default : No
Forced : No

Text #5
ID : 7
Format : UTF-8
Codec ID : S_TEXT/UTF8
Codec ID/Info : UTF-8 Plain Text
Duration : 1 h 40 min
Bit rate : 48 b/s
Frame rate : 0.198 FPS
Count of elements : 1195
Stream size : 35.6 KiB (0%)
Title : Latin American
Language : Spanish
Default : No
Forced : No

Text #6
ID : 8
Format : UTF-8
Codec ID : S_TEXT/UTF8
Codec ID/Info : UTF-8 Plain Text
Duration : 1 h 36 min
Bit rate : 52 b/s
Frame rate : 0.179 FPS
Count of elements : 1036
Stream size : 37.1 KiB (0%)
Language : Spanish
Default : No
Forced : No

Text #7
ID : 9
Format : UTF-8
Codec ID : S_TEXT/UTF8
Codec ID/Info : UTF-8 Plain Text
Duration : 1 h 40 min
Bit rate : 40 b/s
Frame rate : 0.167 FPS
Count of elements : 1008
Stream size : 29.6 KiB (0%)
Language : Finnish
Default : No
Forced : No

Text #8
ID : 10
Format : UTF-8
Codec ID : S_TEXT/UTF8
Codec ID/Info : UTF-8 Plain Text
Duration : 1 h 40 min
Bit rate : 51 b/s
Frame rate : 0.164 FPS
Count of elements : 993
Stream size : 37.9 KiB (0%)
Language : French
Default : No
Forced : No

Text #9
ID : 11
Format : UTF-8
Codec ID : S_TEXT/UTF8
Codec ID/Info : UTF-8 Plain Text
Duration : 1 h 40 min
Bit rate : 50 b/s
Frame rate : 0.196 FPS
Count of elements : 1178
Stream size : 37.1 KiB (0%)
Language : Hungarian
Default : No
Forced : No

Text #10
ID : 12
Format : UTF-8
Codec ID : S_TEXT/UTF8
Codec ID/Info : UTF-8 Plain Text
Duration : 1 h 35 min
Bit rate : 55 b/s
Frame rate : 0.179 FPS
Count of elements : 1027
Stream size : 38.9 KiB (0%)
Language : Italian
Default : No
Forced : No

Text #11
ID : 13
Format : UTF-8
Codec ID : S_TEXT/UTF8
Codec ID/Info : UTF-8 Plain Text
Duration : 1 h 40 min
Bit rate : 56 b/s
Frame rate : 0.201 FPS
Count of elements : 1212
Stream size : 42.0 KiB (0%)
Language : Korean
Default : No
Forced : No

Text #12
ID : 14
Format : UTF-8
Codec ID : S_TEXT/UTF8
Codec ID/Info : UTF-8 Plain Text
Duration : 1 h 40 min
Bit rate : 38 b/s
Frame rate : 0.118 FPS
Count of elements : 707
Stream size : 28.1 KiB (0%)
Language : Dutch
Default : No
Forced : No

Text #13
ID : 15
Format : UTF-8
Codec ID : S_TEXT/UTF8
Codec ID/Info : UTF-8 Plain Text
Duration : 1 h 40 min
Bit rate : 51 b/s
Frame rate : 0.173 FPS
Count of elements : 1047
Stream size : 37.7 KiB (0%)
Language : Norwegian
Default : No
Forced : No

Text #14
ID : 16
Format : UTF-8
Codec ID : S_TEXT/UTF8
Codec ID/Info : UTF-8 Plain Text
Duration : 1 h 40 min
Bit rate : 48 b/s
Frame rate : 0.195 FPS
Count of elements : 1171
Stream size : 35.4 KiB (0%)
Language : Polish
Default : No
Forced : No

Text #15
ID : 17
Format : UTF-8
Codec ID : S_TEXT/UTF8
Codec ID/Info : UTF-8 Plain Text
Duration : 1 h 40 min
Bit rate : 56 b/s
Frame rate : 0.177 FPS
Count of elements : 1065
Stream size : 41.1 KiB (0%)
Language : Portuguese
Default : No
Forced : No

Text #16
ID : 18
Format : UTF-8
Codec ID : S_TEXT/UTF8
Codec ID/Info : UTF-8 Plain Text
Duration : 1 h 40 min
Bit rate : 49 b/s
Frame rate : 0.187 FPS
Count of elements : 1128
Stream size : 36.4 KiB (0%)
Language : Romanian
Default : No
Forced : No

Text #17
ID : 19
Format : UTF-8
Codec ID : S_TEXT/UTF8
Codec ID/Info : UTF-8 Plain Text
Duration : 1 h 40 min
Bit rate : 49 b/s
Frame rate : 0.195 FPS
Count of elements : 1179
Stream size : 36.9 KiB (0%)
Language : Slovak
Default : No
Forced : No

Text #18
ID : 20
Format : UTF-8
Codec ID : S_TEXT/UTF8
Codec ID/Info : UTF-8 Plain Text
Duration : 1 h 36 min
Bit rate : 40 b/s
Frame rate : 0.130 FPS
Count of elements : 753
Stream size : 28.5 KiB (0%)
Language : Swedish
Default : No
Forced : No

Text #19
ID : 21
Format : UTF-8
Codec ID : S_TEXT/UTF8
Codec ID/Info : UTF-8 Plain Text
Duration : 1 h 40 min
Bit rate : 53 b/s
Frame rate : 0.192 FPS
Count of elements : 1158
Stream size : 39.5 KiB (0%)
Language : Turkish
Default : No
Forced : No

Text #20
ID : 22
Format : UTF-8
Codec ID : S_TEXT/UTF8
Codec ID/Info : UTF-8 Plain Text
Duration : 1 h 36 min
Bit rate : 42 b/s
Frame rate : 0.204 FPS
Count of elements : 1177
Stream size : 29.9 KiB (0%)
Title : 简体
Language : 中文
Default : No
Forced : No

Text #21
ID : 23
Format : UTF-8
Codec ID : S_TEXT/UTF8
Codec ID/Info : UTF-8 Plain Text
Duration : 1 h 40 min
Bit rate : 41 b/s
Frame rate : 0.195 FPS
Count of elements : 1177
Stream size : 30.9 KiB (0%)
Title : 繁体
Language : 中文
Default : No
Forced : No

Menu
00:00:01.000 : enegends (Main Titles)
00:03:00.000 : en:The New Kid
00:04:59.000 : en:The Sandlot Kids
00:08:28.000 : en:Mom's Advice
00:10:23.000 : en:A Lesson from Dad
00:13:40.000 : en:Meet the Gang
00:16:17.000 : en:The Weenie
00:23:35.000 : en:The Thing Behind the Fence
00:29:02.000 : enegend of the Beast
00:33:09.000 : en:Wendy Peppercorn
00:35:32.000 : en:Squints' Big Move
00:41:42.000 : en:The Fourth of July
00:44:12.000 : en:A Challenge
00:48:54.000 : en:The Hard Stuff
00:53:20.000 : en:An Omen
00:55:32.000 : en:The Babe's Ball
01:00:58.000 : en:Buying Some Time
01:02:52.000 : enrimitive Attempts
01:06:07.000 : en:Sucking It Up
01:09:18.000 : en:Hanging Out
01:11:14.000 : en:Science Against Nature
01:14:20.000 : en:Benny's Dream
01:17:44.000 : en:Benny & the Beast
01:26:39.000 : en:Saving the Beast
01:28:50.000 : en:Mr. Mertle's Deal
01:33:17.000 : en:Things Work Out
01:34:10.000 : en:The Gang Grows Up
01:37:22.000 : en:End Titles

资源速度为零或资源敏感被和谐时,推荐使用qBittorrent等下载软件,有条件的推荐115更好的下载软件!

下载地址:

游客,如果您要查看本帖隐藏内容请回复

游客,如果您要查看本帖隐藏内容请回复






上一篇:天师斗僵尸[繁体中字] / Fright Night (1985) 4K高清版本下载
下一篇:晚安妈咪[简繁中字] / Goodnight Mommy (2022) 4K高清版本下载
回复

使用道具 举报

1

主题

1278

帖子

3850

积分

4K家园VIP

Rank: 9Rank: 9Rank: 9

积分
3850
发表于 2022-9-17 10:20:54 | 显示全部楼层
非常好,顶一下
回复 支持 反对

使用道具 举报

51

主题

1526

帖子

4398

积分

4K家园VIP

Rank: 9Rank: 9Rank: 9

积分
4398
发表于 2022-9-17 21:25:51 | 显示全部楼层
求沙发
回复 支持 反对

使用道具 举报

2

主题

1431

帖子

4266

积分

4K家园VIP

Rank: 9Rank: 9Rank: 9

积分
4266
发表于 2022-9-19 05:58:52 来自手机 | 显示全部楼层
介是神马?!!
回复 支持 反对

使用道具 举报

0

主题

1381

帖子

3993

积分

4K家园VIP

Rank: 9Rank: 9Rank: 9

积分
3993
发表于 2022-9-19 21:52:17 | 显示全部楼层
顶顶更健康
回复 支持 反对

使用道具 举报

2

主题

1359

帖子

3913

积分

4K家园VIP

Rank: 9Rank: 9Rank: 9

积分
3913
发表于 2022-9-20 01:29:58 来自手机 | 显示全部楼层
专业抢沙发的!哈哈
回复 支持 反对

使用道具 举报

您需要登录后才可以回帖 登录 | 立即注册

本版积分规则

精彩图文
Archiver|手机版|TAG|Sitemap|新帖|专题|联系我们:邮箱: 4kjia.com@gmail.com   

4k家园   ©2019