[4K UHD 蓝光原盘] 睡梦医生[内嵌中字] / Star Trek (2009) 4K蓝光REMUX版本下载

[复制链接]

1914

主题

2003

帖子

2万

积分

超级版主

Rank: 8Rank: 8

积分
20445
 楼主| 发表于 2022-9-17 10:55:03 | 显示全部楼层 |阅读模式
本帖最后由 没完没了 于 2022-9-22 20:48 编辑

QQ图片20220912200111_副本.png

◎译       名;睡梦医生/ Dr. Sleep / 《闪灵》续集/安眠医生(台) /睡眠医师/睡眠医生/长眠医生
◎片       名;Doctor Sleep
◎年       代;2019
◎产       地;美国/英国
◎类       别;剧情/惊悚/恐怖/奇幻
◎语       言;英语
◎上       映;日期2019-10-30(法国) / 2019-10-31(英国) / 2019-11-08(美国)
◎IMDb评分;7.5/10 from 50008 users
◎IMDb链接;https://www .imdb.com/title/tt5606664
◎豆瓣评分;6.8/10 from 8282 users
◎豆瓣链接;https://movie.douban.com/subject/25932065/
◎片       长;151分钟
◎导       演;迈克·弗拉纳根Mike Flanagan
◎编       剧;斯蒂芬·金Stephen King /迈克·弗拉纳根Mike Flanagan
◎主       演;伊万·麦克格雷格Ewan McGregor
       丽贝卡·弗格森Rebecca Ferguson
       凯丽·卡伦Kyliegh Curran
       雅各布·特伦布莱Jacob Tremblay
       卡雷尔·斯特鲁基Carel Struycken
       丹尼·劳埃德Danny Lloyd
       艾米丽·阿琳·林德Emily Alyn Lind
       克利夫·柯蒂斯Cliff Curtis
       扎恩·迈克拉农Zahn McClarnon
       切尔西·塔尔玛琪Chelsea Talmadge
       艾丽克斯·埃索Alex Essoe
       布鲁斯·格林伍德Bruce Greenwood
       乔赛琳·唐娜休Jocelin Donahue
       卡尔·卢波利Carl Lumbly
       维奥莱特·麦格劳Violet McGraw
       凯瑟琳·帕克Catherine Parker
       罗伯特·朗斯特里特Robert Longstreet
       赛琳娜·安杜兹Selena Anduze
       尼古拉斯·普罗约尔Nicholas Pryor
       贝瑟妮·安妮·林德Bethany Anne Lind
       查尔斯·格林Charles Green
       扎克瑞·莫莫Zackary Momoh
       杰森·戴维斯Jason Davis
       胡安·贾斯帕Juan Gaspard
       路易斯·桑切斯Luis Sanchez

◎简介

  《闪灵》续集《睡眠医师》(Doctor Sleep)北美定档2020年1月24日,依然根据斯蒂芬·金的同名小说改编,迈克·弗拉纳甘(《杰罗德游戏》《死亡占卜2》《梦醒之前》)执导。本片聚焦闪灵里的儿子Danny Torrance,经历了Overlook Hotel里可怕的童年时光后,他已经流浪了几十年,渴望摆脱父亲的绝望、酒精、暴力等特质,最终定居在新罕布什尔州的一个小镇上,这是一个支持他的AA制社区,他在一家养老院找到工作,在那里他残余的“闪灵”之力为垂死之人提供了至关重要的最终安慰。在一只有预知能力的猫的帮助下,他成为了“睡眠医师”。2001年女婴Abra Stone诞生,她逐渐开始展现超自然之力,似乎预测到了911事件。她缓慢而无意地与Danny建立起心灵感应的纽带,随着她的成长,力量也比Danny的更加强大,Danny被重新激起他心中的恶魔,并召唤他为Abra的灵魂和生存战斗。
  弗拉纳甘重写剧本,此前由Akiva Goldsman改编。

Video
ID : 1
ID in the original source medium : 4113 (0x1011)
Format : HEVC
Format/Info : High Efficiency Video Coding
Format profile : Main 10@L5.1@High
HDR format : Dolby Vision, Version 1.0, dvhe.07.06, BL+EL+RPU, Blu-ray compatible / SMPTE ST 2094 App 4, Version 1, HDR10+ Profile B compatible
Codec ID : V_MPEGH/ISO/HEVC
Duration : 2 h 32 min
Bit rate : 63.8 Mb/s
Width : 3 840 pixels
Height : 2 160 pixels
Display aspect ratio : 16:9
Frame rate mode : Constant
Frame rate : 23.976 (24000/1001) FPS
Color space : YUV
Chroma subsampling : 4:2:0 (Type 2)
Bit depth : 10 bits
Bits/(Pixel*Frame) : 0.321
Stream size : 67.8 GiB (84%)
Language : English
Default : No
Forced : No
Color range : Limited
Color primaries : BT.2020
Transfer characteristics : PQ
Matrix coefficients : BT.2020 non-constant
Mastering display color primaries : Display P3
Mastering display luminance : min: 0.0001 cd/m2, max: 1000 cd/m2
Maximum Content Light Level : 745 cd/m2
Maximum Frame-Average Light Level : 47 cd/m2
Original source medium : Blu-ray

Audio #1
ID : 2
ID in the original source medium : 4352 (0x1100)
Format : MLP FBA 16-ch
Format/Info : Meridian Lossless Packing FBA with 16-channel presentation
Commercial name : Dolby TrueHD with Dolby Atmos
Codec ID : A_TRUEHD
Duration : 2 h 32 min
Bit rate mode : Variable
Bit rate : 3 939 kb/s
Maximum bit rate : 7 347 kb/s
Channel(s) : 8 channels
Channel layout : L R C LFE Ls Rs Lb Rb
Sampling rate : 48.0 kHz
Frame rate : 1 200.000 FPS (40 SPF)
Bit depth : 24 bits
Compression mode : Lossless
Stream size : 4.18 GiB (5%)
Title : TrueHD 7.1 Atmos
Language : English
Default : Yes
Forced : No
Original source medium : Blu-ray
Number of dynamic objects : 15
Bed channel count : 1 channel
Bed channel configuration : LFE

Audio #2
ID : 3
Format : DTS XLL
Format/Info : Digital Theater Systems
Commercial name : DTS-HD Master Audio
Codec ID : A_DTS
Duration : 2 h 32 min
Bit rate mode : Variable
Bit rate : 4 101 kb/s
Channel(s) : 8 channels
Channel layout : C L R LFE Lb Rb Lss Rss
Sampling rate : 48.0 kHz
Frame rate : 93.750 FPS (512 SPF)
Bit depth : 24 bits
Compression mode : Lossless
Stream size : 4.35 GiB (5%)
Title : DTS-HD MA 7.1
Language : English
Default : No
Forced : No

Audio #3
ID : 4
ID in the original source medium : 4352 (0x1100)
Format : AC-3
Format/Info : Audio Coding 3
Commercial name : Dolby Digital
Format settings : Dolby Surround EX
Codec ID : A_AC3
Duration : 2 h 32 min
Bit rate mode : Constant
Bit rate : 640 kb/s
Channel(s) : 6 channels
Channel layout : L R C LFE Ls Rs
Sampling rate : 48.0 kHz
Frame rate : 31.250 FPS (1536 SPF)
Compression mode : Lossy
Stream size : 696 MiB (1%)
Title : DD 5.1
Language : English
Service kind : Complete Main
Default : No
Forced : No
Original source medium : Blu-ray

Audio #4
ID : 5
ID in the original source medium : 4353 (0x1101)
Format : AC-3
Format/Info : Audio Coding 3
Commercial name : Dolby Digital
Codec ID : A_AC3
Duration : 2 h 32 min
Bit rate mode : Constant
Bit rate : 448 kb/s
Channel(s) : 6 channels
Channel layout : L R C LFE Ls Rs
Sampling rate : 48.0 kHz
Frame rate : 31.250 FPS (1536 SPF)
Compression mode : Lossy
Stream size : 487 MiB (1%)
Title : DD 5.1
Language : English
Service kind : Complete Main
Default : No
Forced : No
Original source medium : Blu-ray

Audio #5
ID : 6
ID in the original source medium : 4354 (0x1102)
Format : AC-3
Format/Info : Audio Coding 3
Commercial name : Dolby Digital
Codec ID : A_AC3
Duration : 2 h 32 min
Bit rate mode : Constant
Bit rate : 448 kb/s
Channel(s) : 6 channels
Channel layout : L R C LFE Ls Rs
Sampling rate : 48.0 kHz
Frame rate : 31.250 FPS (1536 SPF)
Compression mode : Lossy
Stream size : 487 MiB (1%)
Title : DD 5.1
Language : English
Service kind : Complete Main
Default : No
Forced : No
Original source medium : Blu-ray

Audio #6
ID : 7
ID in the original source medium : 4355 (0x1103)
Format : AC-3
Format/Info : Audio Coding 3
Commercial name : Dolby Digital
Codec ID : A_AC3
Duration : 2 h 32 min
Bit rate mode : Constant
Bit rate : 448 kb/s
Channel(s) : 6 channels
Channel layout : L R C LFE Ls Rs
Sampling rate : 48.0 kHz
Frame rate : 31.250 FPS (1536 SPF)
Compression mode : Lossy
Stream size : 487 MiB (1%)
Title : DD 5.1
Language : English
Service kind : Complete Main
Default : No
Forced : No
Original source medium : Blu-ray

Audio #7
ID : 8
ID in the original source medium : 4356 (0x1104)
Format : AC-3
Format/Info : Audio Coding 3
Commercial name : Dolby Digital
Codec ID : A_AC3
Duration : 2 h 32 min
Bit rate mode : Constant
Bit rate : 448 kb/s
Channel(s) : 6 channels
Channel layout : L R C LFE Ls Rs
Sampling rate : 48.0 kHz
Frame rate : 31.250 FPS (1536 SPF)
Compression mode : Lossy
Stream size : 487 MiB (1%)
Title : DD 5.1
Language : French
Service kind : Complete Main
Default : No
Forced : No
Original source medium : Blu-ray

Audio #8
ID : 9
ID in the original source medium : 4357 (0x1105)
Format : AC-3
Format/Info : Audio Coding 3
Commercial name : Dolby Digital
Codec ID : A_AC3
Duration : 2 h 32 min
Bit rate mode : Constant
Bit rate : 448 kb/s
Channel(s) : 6 channels
Channel layout : L R C LFE Ls Rs
Sampling rate : 48.0 kHz
Frame rate : 31.250 FPS (1536 SPF)
Compression mode : Lossy
Stream size : 487 MiB (1%)
Title : DD 5.1
Language : Italian
Service kind : Complete Main
Default : No
Forced : No
Original source medium : Blu-ray

Audio #9
ID : 10
ID in the original source medium : 4358 (0x1106)
Format : AC-3
Format/Info : Audio Coding 3
Commercial name : Dolby Digital
Codec ID : A_AC3
Duration : 2 h 32 min
Bit rate mode : Constant
Bit rate : 448 kb/s
Channel(s) : 6 channels
Channel layout : L R C LFE Ls Rs
Sampling rate : 48.0 kHz
Frame rate : 31.250 FPS (1536 SPF)
Compression mode : Lossy
Stream size : 487 MiB (1%)
Title : DD 5.1
Language : Spanish
Service kind : Complete Main
Default : No
Forced : No
Original source medium : Blu-ray

Audio #10
ID : 11
ID in the original source medium : 4359 (0x1107)
Format : AC-3
Format/Info : Audio Coding 3
Commercial name : Dolby Digital
Codec ID : A_AC3
Duration : 2 h 32 min
Bit rate mode : Constant
Bit rate : 448 kb/s
Channel(s) : 6 channels
Channel layout : L R C LFE Ls Rs
Sampling rate : 48.0 kHz
Frame rate : 31.250 FPS (1536 SPF)
Compression mode : Lossy
Stream size : 487 MiB (1%)
Title : DD 5.1
Language : Russian
Service kind : Complete Main
Default : No
Forced : No
Original source medium : Blu-ray

Text #1
ID : 12
Format : UTF-8
Codec ID : S_TEXT/UTF8
Codec ID/Info : UTF-8 Plain Text
Duration : 2 h 27 min
Bit rate : 36 b/s
Frame rate : 0.184 FPS
Count of elements : 1624
Stream size : 39.9 KiB (0%)
Language : English
Default : Yes
Forced : No

Text #2
ID : 13
Format : UTF-8
Codec ID : S_TEXT/UTF8
Codec ID/Info : UTF-8 Plain Text
Duration : 2 h 27 min
Bit rate : 43 b/s
Frame rate : 0.217 FPS
Count of elements : 1918
Stream size : 46.7 KiB (0%)
Title : SDH
Language : English
Default : No
Forced : No

Text #3
ID : 14
ID in the original source medium : 4768 (0x12A0)
Format : PGS
Muxing mode : zlib
Codec ID : S_HDMV/PGS
Codec ID/Info : Picture based subtitle format used on BDs/HD-DVDs
Duration : 2 h 27 min
Bit rate : 27.1 kb/s
Frame rate : 0.439 FPS
Count of elements : 3878
Stream size : 28.5 MiB (0%)
Language : English
Default : No
Forced : No
Original source medium : Blu-ray

Text #4
ID : 15
ID in the original source medium : 4769 (0x12A1)
Format : PGS
Muxing mode : zlib
Codec ID : S_HDMV/PGS
Codec ID/Info : Picture based subtitle format used on BDs/HD-DVDs
Duration : 2 h 31 min
Bit rate : 19.2 kb/s
Frame rate : 0.322 FPS
Count of elements : 2918
Stream size : 20.7 MiB (0%)
Language : French
Default : No
Forced : No
Original source medium : Blu-ray

Text #5
ID : 16
ID in the original source medium : 4770 (0x12A2)
Format : PGS
Muxing mode : zlib
Codec ID : S_HDMV/PGS
Codec ID/Info : Picture based subtitle format used on BDs/HD-DVDs
Duration : 2 h 27 min
Bit rate : 25.6 kb/s
Frame rate : 0.441 FPS
Count of elements : 3890
Stream size : 27.0 MiB (0%)
Language : Italian
Default : No
Forced : No
Original source medium : Blu-ray

Text #6
ID : 17
ID in the original source medium : 4770 (0x12A2)
Format : PGS
Muxing mode : zlib
Codec ID : S_HDMV/PGS
Codec ID/Info : Picture based subtitle format used on BDs/HD-DVDs
Duration : 1 h 47 min
Bit rate : 495 b/s
Frame rate : 0.007 FPS
Count of elements : 48
Stream size : 388 KiB (0%)
Language : Italian
Default : No
Forced : No
Original source medium : Blu-ray

Text #7
ID : 18
ID in the original source medium : 4771 (0x12A3)
Format : PGS
Muxing mode : zlib
Codec ID : S_HDMV/PGS
Codec ID/Info : Picture based subtitle format used on BDs/HD-DVDs
Duration : 2 h 31 min
Bit rate : 24.0 kb/s
Frame rate : 0.366 FPS
Count of elements : 3320
Stream size : 25.9 MiB (0%)
Language : 中文
Default : No
Forced : No
Original source medium : Blu-ray


Text #8
ID : 19
ID in the original source medium : 4772 (0x12A4)
Format : PGS
Muxing mode : zlib
Codec ID : S_HDMV/PGS
Codec ID/Info : Picture based subtitle format used on BDs/HD-DVDs
Duration : 2 h 25 min
Bit rate : 14.8 kb/s
Frame rate : 0.372 FPS
Count of elements : 3244
Stream size : 15.3 MiB (0%)
Language : Korean
Default : No
Forced : No
Original source medium : Blu-ray

Text #9
ID : 20
ID in the original source medium : 4773 (0x12A5)
Format : PGS
Muxing mode : zlib
Codec ID : S_HDMV/PGS
Codec ID/Info : Picture based subtitle format used on BDs/HD-DVDs
Duration : 2 h 25 min
Bit rate : 24.7 kb/s
Frame rate : 0.373 FPS
Count of elements : 3250
Stream size : 25.7 MiB (0%)
Language : Spanish
Default : No
Forced : No
Original source medium : Blu-ray

Text #10
ID : 21
ID in the original source medium : 4773 (0x12A5)
Format : PGS
Muxing mode : zlib
Codec ID : S_HDMV/PGS
Codec ID/Info : Picture based subtitle format used on BDs/HD-DVDs
Duration : 1 h 37 min
Bit rate : 358 b/s
Frame rate : 0.004 FPS
Count of elements : 24
Stream size : 256 KiB (0%)
Language : Spanish
Default : No
Forced : No
Original source medium : Blu-ray

Text #11
ID : 22
ID in the original source medium : 4774 (0x12A6)
Format : PGS
Muxing mode : zlib
Codec ID : S_HDMV/PGS
Codec ID/Info : Picture based subtitle format used on BDs/HD-DVDs
Duration : 2 h 31 min
Bit rate : 13.1 kb/s
Frame rate : 0.366 FPS
Count of elements : 3322
Stream size : 14.2 MiB (0%)
Language : Arabic
Default : No
Forced : No
Original source medium : Blu-ray

Text #12
ID : 23
ID in the original source medium : 4775 (0x12A7)
Format : PGS
Muxing mode : zlib
Codec ID : S_HDMV/PGS
Codec ID/Info : Picture based subtitle format used on BDs/HD-DVDs
Duration : 2 h 31 min
Bit rate : 20.4 kb/s
Frame rate : 0.262 FPS
Count of elements : 2376
Stream size : 22.1 MiB (0%)
Language : Danish
Default : No
Forced : No
Original source medium : Blu-ray

Text #13
ID : 24
ID in the original source medium : 4776 (0x12A8)
Format : PGS
Muxing mode : zlib
Codec ID : S_HDMV/PGS
Codec ID/Info : Picture based subtitle format used on BDs/HD-DVDs
Duration : 2 h 31 min
Bit rate : 22.2 kb/s
Frame rate : 0.355 FPS
Count of elements : 3222
Stream size : 24.0 MiB (0%)
Language : Finnish
Default : No
Forced : No
Original source medium : Blu-ray

Text #14
ID : 25
ID in the original source medium : 4777 (0x12A9)
Format : PGS
Muxing mode : zlib
Codec ID : S_HDMV/PGS
Codec ID/Info : Picture based subtitle format used on BDs/HD-DVDs
Duration : 2 h 31 min
Bit rate : 22.8 kb/s
Frame rate : 0.362 FPS
Count of elements : 3286
Stream size : 24.6 MiB (0%)
Language : Greek
Default : No
Forced : No
Original source medium : Blu-ray

Text #15
ID : 26
ID in the original source medium : 4778 (0x12AA)
Format : PGS
Muxing mode : zlib
Codec ID : S_HDMV/PGS
Codec ID/Info : Picture based subtitle format used on BDs/HD-DVDs
Duration : 2 h 31 min
Bit rate : 19.9 kb/s
Frame rate : 0.271 FPS
Count of elements : 2456
Stream size : 21.5 MiB (0%)
Language : Norwegian
Default : No
Forced : No
Original source medium : Blu-ray

Text #16
ID : 27
ID in the original source medium : 4779 (0x12AB)
Format : PGS
Muxing mode : zlib
Codec ID : S_HDMV/PGS
Codec ID/Info : Picture based subtitle format used on BDs/HD-DVDs
Duration : 2 h 31 min
Bit rate : 21.7 kb/s
Frame rate : 0.360 FPS
Count of elements : 3262
Stream size : 23.4 MiB (0%)
Language : Portuguese
Default : No
Forced : No
Original source medium : Blu-ray

Text #17
ID : 28
ID in the original source medium : 4780 (0x12AC)
Format : PGS
Muxing mode : zlib
Codec ID : S_HDMV/PGS
Codec ID/Info : Picture based subtitle format used on BDs/HD-DVDs
Duration : 2 h 31 min
Bit rate : 21.4 kb/s
Frame rate : 0.365 FPS
Count of elements : 3314
Stream size : 23.1 MiB (0%)
Language : Russian
Default : No
Forced : No
Original source medium : Blu-ray

Text #18
ID : 29
ID in the original source medium : 4780 (0x12AC)
Format : PGS
Muxing mode : zlib
Codec ID : S_HDMV/PGS
Codec ID/Info : Picture based subtitle format used on BDs/HD-DVDs
Duration : 2 h 14 min
Bit rate : 684 b/s
Frame rate : 0.010 FPS
Count of elements : 84
Stream size : 676 KiB (0%)
Language : Russian
Default : No
Forced : No
Original source medium : Blu-ray

Text #19
ID : 30
ID in the original source medium : 4781 (0x12AD)
Format : PGS
Muxing mode : zlib
Codec ID : S_HDMV/PGS
Codec ID/Info : Picture based subtitle format used on BDs/HD-DVDs
Duration : 2 h 31 min
Bit rate : 21.7 kb/s
Frame rate : 0.352 FPS
Count of elements : 3190
Stream size : 23.4 MiB (0%)
Language : Swedish
Default : No
Forced : No
Original source medium : Blu-ray

Text #20
ID : 31
ID in the original source medium : 4782 (0x12AE)
Format : PGS
Muxing mode : zlib
Codec ID : S_HDMV/PGS
Codec ID/Info : Picture based subtitle format used on BDs/HD-DVDs
Duration : 2 h 5 min
Bit rate : 284 b/s
Frame rate : 0.005 FPS
Count of elements : 36
Stream size : 261 KiB (0%)
Title : FORCED
Language : French
Default : No
Forced : No
Original source medium : Blu-ray

Menu
00:00:00.000 : en:Chapter 01
00:10:36.260 : en:Chapter 02
00:19:44.349 : en:Chapter 03
00:29:23.011 : en:Chapter 04
00:39:51.555 : en:Chapter 05
00:49:47.317 : en:Chapter 06
00:58:24.584 : en:Chapter 07
01:06:00.414 : en:Chapter 08
01:11:00.756 : en:Chapter 09
01:20:35.413 : en:Chapter 10
01:27:07.013 : en:Chapter 11
01:35:13.457 : en:Chapter 12
01:44:01.902 : en:Chapter 13
01:52:52.474 : en:Chapter 14
02:01:22.733 : en:Chapter 15
02:08:01.507 : en:Chapter 16
02:17:27.155 : en:Chapter 17
02:23:06.536 : en:Chapter 18
02:26:22.064 : en:Chapter 19

新种推荐使用qBittorrent、uTorrent等下载软件,有条件的推荐115更好的下载软件!

睡梦医生(80.53GB)Doctor.Sleep.2019.PROPER.THEATRICAL.2160p.BluRay.REMUX.HEVC.DTS-HD.MA.TrueHD.7.1.Atmos-FGT-【2160P蓝光REMUX】
游客,如果您要查看本帖隐藏内容请回复


以下为4K蓝光版本(英字版本)
睡梦医生(13.18GB)Doctor.Sleep.2019.THEATRICAL.2160p.UHD.BluRay.x265.10bit.HDR.TrueHD.7.1.Atmos-RARBG
游客,如果您要查看本帖隐藏内容请回复

睡梦医生(9.20GB)Doctor.Sleep.2019.THEATRICAL.2160p.UHD.BluRay.x265.10bit.HDR.DDP5.1-RARBG
游客,如果您要查看本帖隐藏内容请回复

以下为4K高清版本(英字版本)
睡梦医生(15.45GB)Doctor.Sleep.2019.DC.2160p.UHD.WEBRip.x265.10bit.HDR.TrueHD.7.1.Atmos-RARBG
游客,如果您要查看本帖隐藏内容请回复

睡梦医生(10.91GB)Doctor.Sleep.2019.DC.2160p.UHD.WEBRip.x265.10bit.HDR.DDP5.1-RARBG
游客,如果您要查看本帖隐藏内容请回复



QQ4K海报.gif


上一篇:猫王 / Elvis (2022) 4K蓝光[原盘+REMUX]版本下载
下一篇:星际迷航 / Star Trek (2009) 4K蓝光REMUX版本下载
回复

使用道具 举报

53

主题

1519

帖子

4427

积分

4K家园VIP

Rank: 9Rank: 9Rank: 9

积分
4427
发表于 2022-9-17 10:55:06 | 显示全部楼层
你们要是有4K资源记得分享,别小气
回复 支持 反对

使用道具 举报

56

主题

1501

帖子

4359

积分

4K家园VIP

Rank: 9Rank: 9Rank: 9

积分
4359
发表于 2022-9-17 10:55:07 | 显示全部楼层
这个资源我记得是一套的,楼主还有没有
回复 支持 反对

使用道具 举报

48

主题

1516

帖子

4366

积分

4K家园VIP

Rank: 9Rank: 9Rank: 9

积分
4366
发表于 2022-9-25 06:09:22 | 显示全部楼层
支持一下楼主,顶起来
回复 支持 反对

使用道具 举报

您需要登录后才可以回帖 登录 | 立即注册

本版积分规则

精彩图文
Archiver|手机版|TAG|Sitemap|新帖|专题|联系我们:邮箱: 4kjia.com@gmail.com   

4k家园   ©2019