[4K UHD 蓝光原盘] 霍比特人2:史矛革之战 [内嵌中字] (2013) 4K蓝光REMUX版本下载

[复制链接]

1914

主题

2003

帖子

2万

积分

超级版主

Rank: 8Rank: 8

积分
20445
 楼主| 发表于 2022-9-20 22:23:10 | 显示全部楼层 |阅读模式
本帖最后由 没完没了 于 2022-9-20 22:34 编辑

QQ图片20220920221714_副本.png

◎标  题 霍比特人2:史矛革之战
◎译  名 霍比特人2:史矛革荒漠 / 哈比人:荒谷魔龙(港) / 哈比人:荒谷恶龙(台) / 霍比特人2:斯毛戈荒漠 / 指环王前传:霍比特人(中) / The Hobbit: Part 2
◎片  名 The Hobbit: The Desolation of Smaug
◎年  代 2013
◎产  地 美国 / 新西兰
◎类  别 动作 / 奇幻 / 冒险
◎语  言 英语
◎上映日期 2014-02-21(中国大陆) / 2013-12-13(美国)
◎IMDb评分 7.8/10 from 656021 users 更新 : 2022-09-18
◎IMDb链接 https://www.imdb.com/title/tt1170358/
◎豆瓣评分 8.4/10 from 347551 users 更新 : 2022-09-18
◎豆瓣链接 https://movie.douban.com/subject/11606328/
◎片  长 161分钟
◎导  演 彼得·杰克逊 Peter Jackson
◎编  剧 J. R. R. 托尔金 J. R. R. Tolkien / 弗兰·威尔士 Fran Walsh / 菲利帕·鲍恩斯 Philippa Boyens / 彼得·杰克逊 Peter Jackson / 吉尔莫·德尔·托罗 Guillermo del Toro
◎演  员 伊恩·麦克莱恩 Ian McKellen
       马丁·弗瑞曼 Martin Freeman
       理查德·阿米蒂奇 Richard Armitage
       本尼迪克特·康伯巴奇 Benedict Cumberbatch
       奥兰多·布鲁姆 Orlando Bloom
       伊万杰琳·莉莉 Evangeline Lilly
       李·佩斯 Lee Pace
       卢克·伊万斯 Luke Evans
       斯蒂芬·弗雷 Stephen Fry
       肯·斯托特 Ken Stott
       詹姆斯·内斯比特 James Nesbitt
       约翰·贝尔 John Bell
       马努·贝内特 Manu Bennett
       杰德·布罗菲 Jed Brophy
       亚当·布朗 Adam Brown
       约翰·凯伦 John Callen
       瑞安·盖奇 Ryan Gage
       马克·哈德洛 Mark Hadlow
       彼得·汉布尔顿 Peter Hambleton
       斯蒂芬·亨特 Stephen Hunter
       威廉·基尔舍 William Kircher
       西尔维斯特·迈可伊 Sylvester McCoy
       格拉汉姆·麦克泰维什 Graham McTavish
       迪恩·奥戈曼 Dean O'Gorman
       米卡埃尔·佩斯布兰特 Mikael Persbrandt
       艾丹·特纳 Aidan Turner
       佩吉·内斯比特 Peggy Nesbitt
       姜广涛 Guangtao Jiang
       彼得·杰克逊 Peter Jackson
       史蒂芬·寇贝尔 Stephen Colbert
       泰瑞·诺塔里 Terry Notary
       玛丽·内斯比特 Mary Nesbitt
       Isabelle Rose Kircher Isabelle Rose Kircher
       西蒙·伦顿 Simon London
       马克·米钦森 Mark Mitchinson
       莎拉·皮尔斯 Sarah Peirse
       伊利亚·伍德 Elijah Wood
       史蒂芬·乌瑞 Stephen Ure
       格雷格·埃利斯 Greg Ellis
       达拉斯·巴内特 Dallas Barnett
       Robin Kerr Robin Kerr
       雨果·维文 Hugo Weaving
       凯特·布兰切特 Cate Blanchett
       克里格·霍尔 Craig Hall
       劳伦斯·马克奥雷 Lawrence Makoare
       克里斯托弗·李 Christopher Lee
       彼得·杰克逊 Peter Jackson
       弗兰·威尔士 Fran Walsh
       霍华德·肖 Howard Shore
       安德鲁·莱斯尼 Andrew Lesnie
       艾伦·李 Alan Lee
       约翰·豪 John Howe
       安·马斯克里 Ann Maskrey
       鲍勃·巴克 Bob Buck
       理查德·泰勒 Richard Taylor
       安迪·瑟金斯 Andy Serkis
       迈克尔·科琴斯 Michael Cozens
       瑞秋·劳伦森 Rachel Laurenson
       理查德·泰勒 Richard Taylor
       杰森·李·豪顿 Jason Lei Howden
       埃里克·雷诺兹 Eric Reynolds
       埃里克·赛恩登 Eric Saindon
       阿什利·菲 Ashlee Fidow


◎简  介


  距离孤山越来越近,矮人远征军的道路却变得异常艰险。他们躲过了苍白半兽人的不懈追杀,在幽暗密林前和甘道夫(伊恩·麦凯伦 Ian McKellen 饰)兵分两路,后者前往多尔哥多探寻索伦的动向,而霍比特人比尔博·巴金斯(马丁·弗里曼 Martin John C. Freeman 饰)和矮人们先是遭到巨大蜘蛛的袭击,随后又被精灵王子莱戈拉斯(奥兰多·布鲁姆 Orlando Bloom 饰)及其木精灵同伴捕获。比尔博急中生智,利用魔戒救出伙伴,继而引发了木精灵、半兽人和矮人远征军之间精彩纷呈的三方会战。借助巴德(卢克·伊万斯 Luke Evans 饰)的帮助,疲惫的矮人们暂时落脚长湖镇。近在咫尺的孤山城堡,沉睡在财宝中的巨龙即将醒来……
本片根据J.R.R·托尔金的同名原著改编。

Video
ID : 1
ID in the original source medium : 4113 (0x1011)
Format : HEVC
Format/Info : High Efficiency Video Coding
Format profile : Main 10@L5.1@High
HDR format : Dolby Vision, Version 1.0, dvhe.07.06, BL+EL+RPU, Blu-ray compatible / SMPTE ST 2086, HDR10 compatible
Codec ID : V_MPEGH/ISO/HEVC
Duration : 3 h 6 min
Bit rate : 55.8 Mb/s
Width : 3 840 pixels
Height : 2 160 pixels
Display aspect ratio : 16:9
Frame rate mode : Constant
Frame rate : 23.976 (24000/1001) FPS
Color space : YUV
Chroma subsampling : 4:2:0 (Type 2)
Bit depth : 10 bits
Bits/(Pixel*Frame) : 0.281
Stream size : 72.7 GiB (86%)
Language : English
Default : No
Forced : No
Color range : Limited
Color primaries : BT.2020
Transfer characteristics : PQ
Matrix coefficients : BT.2020 non-constant
Mastering display color primaries : Display P3
Mastering display luminance : min: 0.0050 cd/m2, max: 4000 cd/m2
Maximum Content Light Level : 1122 cd/m2
Maximum Frame-Average Light Level : 216 cd/m2
Original source medium : Blu-ray

Audio #1
ID : 2
ID in the original source medium : 4352 (0x1100)
Format : MLP FBA 16-ch
Format/Info : Meridian Lossless Packing FBA with 16-channel presentation
Commercial name : Dolby TrueHD with Dolby Atmos
Codec ID : A_TRUEHD
Duration : 3 h 6 min
Bit rate mode : Variable
Bit rate : 3 200 kb/s
Maximum bit rate : 5 031 kb/s
Channel(s) : 8 channels
Channel layout : L R C LFE Ls Rs Lb Rb
Sampling rate : 48.0 kHz
Frame rate : 1 200.000 FPS (40 SPF)
Bit depth : 24 bits
Compression mode : Lossless
Stream size : 4.17 GiB (5%)
Title : TrueHD 7.1 Atmos
Language : English
Default : Yes
Forced : No
Original source medium : Blu-ray
Number of dynamic objects : 11
Bed channel count : 1 channel
Bed channel configuration : LFE

Audio #2
ID : 3
Format : DTS XLL
Format/Info : Digital Theater Systems
Commercial name : DTS-HD Master Audio
Codec ID : A_DTS
Duration : 3 h 6 min
Bit rate mode : Variable
Bit rate : 4 257 kb/s
Channel(s) : 8 channels
Channel layout : C L R LFE Lb Rb Lss Rss
Sampling rate : 48.0 kHz
Frame rate : 93.750 FPS (512 SPF)
Bit depth : 24 bits
Compression mode : Lossless
Stream size : 5.55 GiB (7%)
Title : DTS-HD MA 7.1
Language : English
Default : No
Forced : No

Audio #3
ID : 4
ID in the original source medium : 4352 (0x1100)
Format : AC-3
Format/Info : Audio Coding 3
Commercial name : Dolby Digital
Format settings : Dolby Surround EX
Codec ID : A_AC3
Duration : 3 h 6 min
Bit rate mode : Constant
Bit rate : 448 kb/s
Channel(s) : 6 channels
Channel layout : L R C LFE Ls Rs
Sampling rate : 48.0 kHz
Frame rate : 31.250 FPS (1536 SPF)
Compression mode : Lossy
Stream size : 598 MiB (1%)
Title : DD 5.1
Language : English
Service kind : Complete Main
Default : No
Forced : No
Original source medium : Blu-ray

Audio #4
ID : 5
ID in the original source medium : 4353 (0x1101)
Format : AC-3
Format/Info : Audio Coding 3
Commercial name : Dolby Digital
Codec ID : A_AC3
Duration : 3 h 6 min
Bit rate mode : Constant
Bit rate : 448 kb/s
Channel(s) : 6 channels
Channel layout : L R C LFE Ls Rs
Sampling rate : 48.0 kHz
Frame rate : 31.250 FPS (1536 SPF)
Compression mode : Lossy
Stream size : 598 MiB (1%)
Title : DD 5.1
Language : Italian
Service kind : Complete Main
Default : No
Forced : No
Original source medium : Blu-ray

Audio #5
ID : 6
ID in the original source medium : 4354 (0x1102)
Format : AC-3
Format/Info : Audio Coding 3
Commercial name : Dolby Digital
Codec ID : A_AC3
Duration : 3 h 6 min
Bit rate mode : Constant
Bit rate : 448 kb/s
Channel(s) : 6 channels
Channel layout : L R C LFE Ls Rs
Sampling rate : 48.0 kHz
Frame rate : 31.250 FPS (1536 SPF)
Compression mode : Lossy
Stream size : 598 MiB (1%)
Title : DD 5.1
Language : Spanish
Service kind : Complete Main
Default : No
Forced : No
Original source medium : Blu-ray

Audio #6
ID : 7
ID in the original source medium : 4355 (0x1103)
Format : AC-3
Format/Info : Audio Coding 3
Commercial name : Dolby Digital
Codec ID : A_AC3
Duration : 3 h 6 min
Bit rate mode : Constant
Bit rate : 448 kb/s
Channel(s) : 6 channels
Channel layout : L R C LFE Ls Rs
Sampling rate : 48.0 kHz
Frame rate : 31.250 FPS (1536 SPF)
Compression mode : Lossy
Stream size : 598 MiB (1%)
Title : DD 5.1
Language : Czech
Service kind : Complete Main
Default : No
Forced : No
Original source medium : Blu-ray

Text #1
ID : 8
Format : UTF-8
Codec ID : S_TEXT/UTF8
Codec ID/Info : UTF-8 Plain Text
Duration : 2 h 54 min
Bit rate : 37 b/s
Frame rate : 0.184 FPS
Count of elements : 1918
Stream size : 48.5 KiB (0%)
Language : English
Default : Yes
Forced : No

Text #2
ID : 9
Format : UTF-8
Codec ID : S_TEXT/UTF8
Codec ID/Info : UTF-8 Plain Text
Duration : 2 h 54 min
Bit rate : 40 b/s
Frame rate : 0.205 FPS
Count of elements : 2153
Stream size : 52.1 KiB (0%)
Title : SDH
Language : English
Default : No
Forced : No

Text #3
ID : 10
ID in the original source medium : 4768 (0x12A0)
Format : PGS
Muxing mode : zlib
Codec ID : S_HDMV/PGS
Codec ID/Info : Picture based subtitle format used on BDs/HD-DVDs
Duration : 2 h 54 min
Bit rate : 25.2 kb/s
Frame rate : 0.434 FPS
Count of elements : 4558
Stream size : 31.6 MiB (0%)
Language : English
Default : No
Forced : No
Original source medium : Blu-ray

Text #4
ID : 11
ID in the original source medium : 4769 (0x12A1)
Format : PGS
Muxing mode : zlib
Codec ID : S_HDMV/PGS
Codec ID/Info : Picture based subtitle format used on BDs/HD-DVDs
Duration : 3 h 5 min
Bit rate : 25.4 kb/s
Frame rate : 0.423 FPS
Count of elements : 4706
Stream size : 33.8 MiB (0%)
Language : Italian
Default : No
Forced : No
Original source medium : Blu-ray

Text #5
ID : 12
ID in the original source medium : 4770 (0x12A2)
Format : PGS
Muxing mode : zlib
Codec ID : S_HDMV/PGS
Codec ID/Info : Picture based subtitle format used on BDs/HD-DVDs
Duration : 3 h 5 min
Bit rate : 21.3 kb/s
Frame rate : 0.375 FPS
Count of elements : 4178
Stream size : 28.3 MiB (0%)
Language : Spanish
Default : No
Forced : No
Original source medium : Blu-ray

Text #6
ID : 13
ID in the original source medium : 4771 (0x12A3)
Format : PGS
Muxing mode : zlib
Codec ID : S_HDMV/PGS
Codec ID/Info : Picture based subtitle format used on BDs/HD-DVDs
Duration : 3 h 5 min
Bit rate : 19.7 kb/s
Frame rate : 0.380 FPS
Count of elements : 4224
Stream size : 26.1 MiB (0%)
Language : Chinese
Default : No
Forced : No
Original source medium : Blu-ray


Text #7
ID : 14
ID in the original source medium : 4772 (0x12A4)
Format : PGS
Muxing mode : zlib
Codec ID : S_HDMV/PGS
Codec ID/Info : Picture based subtitle format used on BDs/HD-DVDs
Duration : 3 h 5 min
Bit rate : 16.8 kb/s
Frame rate : 0.366 FPS
Count of elements : 4068
Stream size : 22.2 MiB (0%)
Language : Korean
Default : No
Forced : No
Original source medium : Blu-ray

Text #8
ID : 15
ID in the original source medium : 4773 (0x12A5)
Format : PGS
Muxing mode : zlib
Codec ID : S_HDMV/PGS
Codec ID/Info : Picture based subtitle format used on BDs/HD-DVDs
Duration : 3 h 5 min
Bit rate : 18.4 kb/s
Frame rate : 0.381 FPS
Count of elements : 4240
Stream size : 24.4 MiB (0%)
Language : Czech
Default : No
Forced : No
Original source medium : Blu-ray

Text #9
ID : 16
ID in the original source medium : 4774 (0x12A6)
Format : PGS
Muxing mode : zlib
Codec ID : S_HDMV/PGS
Codec ID/Info : Picture based subtitle format used on BDs/HD-DVDs
Duration : 3 h 5 min
Bit rate : 19.4 kb/s
Frame rate : 0.381 FPS
Count of elements : 4246
Stream size : 25.8 MiB (0%)
Language : Danish
Default : No
Forced : No
Original source medium : Blu-ray

Text #10
ID : 17
ID in the original source medium : 4775 (0x12A7)
Format : PGS
Muxing mode : zlib
Codec ID : S_HDMV/PGS
Codec ID/Info : Picture based subtitle format used on BDs/HD-DVDs
Duration : 3 h 5 min
Bit rate : 19.7 kb/s
Frame rate : 0.365 FPS
Count of elements : 4070
Stream size : 26.2 MiB (0%)
Language : Finnish
Default : No
Forced : No
Original source medium : Blu-ray

Text #11
ID : 18
ID in the original source medium : 4776 (0x12A8)
Format : PGS
Muxing mode : zlib
Codec ID : S_HDMV/PGS
Codec ID/Info : Picture based subtitle format used on BDs/HD-DVDs
Duration : 3 h 5 min
Bit rate : 20.2 kb/s
Frame rate : 0.378 FPS
Count of elements : 4208
Stream size : 26.8 MiB (0%)
Language : Norwegian
Default : No
Forced : No
Original source medium : Blu-ray

Text #12
ID : 19
ID in the original source medium : 4777 (0x12A9)
Format : PGS
Muxing mode : zlib
Codec ID : S_HDMV/PGS
Codec ID/Info : Picture based subtitle format used on BDs/HD-DVDs
Duration : 3 h 5 min
Bit rate : 19.1 kb/s
Frame rate : 0.378 FPS
Count of elements : 4210
Stream size : 25.4 MiB (0%)
Language : Polish
Default : No
Forced : No
Original source medium : Blu-ray

Text #13
ID : 20
ID in the original source medium : 4778 (0x12AA)
Format : PGS
Muxing mode : zlib
Codec ID : S_HDMV/PGS
Codec ID/Info : Picture based subtitle format used on BDs/HD-DVDs
Duration : 3 h 5 min
Bit rate : 20.5 kb/s
Frame rate : 0.372 FPS
Count of elements : 4142
Stream size : 27.2 MiB (0%)
Language : Swedish
Default : No
Forced : No
Original source medium : Blu-ray

Text #14
ID : 21
ID in the original source medium : 4779 (0x12AB)
Format : PGS
Muxing mode : zlib
Codec ID : S_HDMV/PGS
Codec ID/Info : Picture based subtitle format used on BDs/HD-DVDs
Duration : 2 h 55 min
Bit rate : 21.1 kb/s
Frame rate : 0.404 FPS
Count of elements : 4244
Stream size : 26.4 MiB (0%)
Language : Thai
Default : No
Forced : No
Original source medium : Blu-ray

Text #15
ID : 22
ID in the original source medium : 4780 (0x12AC)
Format : PGS
Muxing mode : zlib
Codec ID : S_HDMV/PGS
Codec ID/Info : Picture based subtitle format used on BDs/HD-DVDs
Duration : 3 h 4 min
Bit rate : 894 b/s
Frame rate : 0.017 FPS
Count of elements : 190
Stream size : 1.18 MiB (0%)
Title : FORCED
Language : Italian
Default : No
Forced : No
Original source medium : Blu-ray

Text #16
ID : 23
ID in the original source medium : 4781 (0x12AD)
Format : PGS
Muxing mode : zlib
Codec ID : S_HDMV/PGS
Codec ID/Info : Picture based subtitle format used on BDs/HD-DVDs
Duration : 3 h 4 min
Bit rate : 904 b/s
Frame rate : 0.017 FPS
Count of elements : 192
Stream size : 1.20 MiB (0%)
Title : FORCED
Language : Spanish
Default : No
Forced : No
Original source medium : Blu-ray

Text #17
ID : 24
ID in the original source medium : 4782 (0x12AE)
Format : PGS
Muxing mode : zlib
Codec ID : S_HDMV/PGS
Codec ID/Info : Picture based subtitle format used on BDs/HD-DVDs
Duration : 2 h 40 min
Bit rate : 877 b/s
Frame rate : 0.020 FPS
Count of elements : 192
Stream size : 1.01 MiB (0%)
Title : FORCED
Language : Czech
Default : No
Forced : No
Original source medium : Blu-ray

Menu
00:00:00.000 : en:Chapter 01
00:07:33.035 : en:Chapter 02
00:11:59.802 : en:Chapter 03
00:12:58.819 : en:Chapter 04
00:15:54.995 : en:Chapter 05
00:20:56.546 : en:Chapter 06
00:23:14.935 : en:Chapter 07
00:25:52.300 : en:Chapter 08
00:29:58.880 : en:Chapter 09
00:38:13.416 : en:Chapter 10
00:46:43.467 : en:Chapter 11
00:49:45.941 : en:Chapter 12
00:53:19.154 : en:Chapter 13
00:55:09.848 : en:Chapter 14
00:58:07.484 : en:Chapter 15
01:08:41.826 : en:Chapter 16
01:12:21.962 : en:Chapter 17
01:15:45.332 : en:Chapter 18
01:19:09.786 : en:Chapter 19
01:22:46.461 : en:Chapter 20
01:25:08.978 : en:Chapter 21
01:28:07.198 : en:Chapter 22
01:31:15.011 : en:Chapter 23
01:36:02.381 : en:Chapter 24
01:37:35.516 : en:Chapter 25
01:40:35.029 : en:Chapter 26
01:45:16.143 : en:Chapter 27
01:48:43.725 : en:Chapter 28
01:50:31.207 : en:Chapter 29
01:52:36.166 : en:Chapter 30
01:53:08.072 : en:Chapter 31
01:59:15.982 : en:Chapter 32
02:07:11.123 : en:Chapter 33
02:07:38.442 : en:Chapter 34
02:09:22.296 : en:Chapter 35
02:12:48.335 : en:Chapter 36
02:22:00.470 : en:Chapter 37
02:22:43.054 : en:Chapter 38
02:23:17.547 : en:Chapter 39
02:24:56.020 : en:Chapter 40
02:26:44.712 : en:Chapter 41
02:29:18.449 : en:Chapter 42
02:33:12.516 : en:Chapter 43
02:34:57.246 : en:Chapter 44
02:36:12.780 : en:Chapter 45
02:37:45.581 : en:Chapter 46
02:39:08.455 : en:Chapter 47
02:41:39.564 : en:Chapter 48
02:44:05.627 : en:Chapter 49
02:51:16.599 : en:Chapter 50
02:56:04.845 : en:Chapter 51

新种资源推荐使用qBittorrent、uTorrent等下载软件,有条件的推荐115更好的下载软件!

霍比特人2:史矛革之战(85.02GB)
The.Hobbit.The.Desolation.of.Smaug.2013.EXTENDED.PROPER.2160p.BluRay.REMUX.HEVC.DTS-HD.MA.TrueHD.7.1.Atmos-FGT-【2160P蓝光REMUX】
游客,如果您要查看本帖隐藏内容请回复




QQ4K海报.gif

上一篇:霍比特人1:意外之旅 [内嵌中字] (2012) 4K蓝光REMUX版本下载
下一篇:霍比特人3:五军之战 [内嵌中字] (2014) 4K蓝光REMUX版本下载
回复

使用道具 举报

1

主题

1434

帖子

4112

积分

4K家园VIP

Rank: 9Rank: 9Rank: 9

积分
4112
发表于 2022-9-20 22:23:16 | 显示全部楼层
4K家园资源最近貌似越来越多了
回复 支持 反对

使用道具 举报

0

主题

8663

帖子

2万

积分

4K家园VIP

Rank: 9Rank: 9Rank: 9

积分
20189
发表于 2022-9-20 22:48:19 | 显示全部楼层
太好啦&萬分感謝版主的無私發佈分享%
回复 支持 反对

使用道具 举报

19

主题

1255

帖子

3765

积分

4K家园VIP

Rank: 9Rank: 9Rank: 9

积分
3765
发表于 2022-9-21 00:53:47 | 显示全部楼层
4K家园资源不错,前排支持
回复 支持 反对

使用道具 举报

2

主题

1359

帖子

4097

积分

4K家园VIP

Rank: 9Rank: 9Rank: 9

积分
4097
发表于 2022-9-25 07:20:01 | 显示全部楼层
前排顶起
回复 支持 反对

使用道具 举报

0

主题

2

帖子

13

积分

新手上路

Rank: 1

积分
13
发表于 7 天前 | 显示全部楼层
谢谢!
回复

使用道具 举报

1

主题

1345

帖子

3857

积分

4K家园VIP

Rank: 9Rank: 9Rank: 9

积分
3857
发表于 7 天前 来自手机 | 显示全部楼层
感谢分享
回复 支持 反对

使用道具 举报

3

主题

1306

帖子

3936

积分

4K家园VIP

Rank: 9Rank: 9Rank: 9

积分
3936
发表于 7 天前 | 显示全部楼层
谢谢楼主
回复 支持 反对

使用道具 举报

您需要登录后才可以回帖 登录 | 立即注册

本版积分规则

精彩图文
Archiver|手机版|TAG|Sitemap|新帖|专题|联系我们:邮箱: 4kjia.com@gmail.com   

4k家园   ©2019