[4K UHD 蓝光原盘] 霍比特人3:五军之战 [内嵌中字] (2014) 4K蓝光REMUX版本下载

[复制链接]

1916

主题

2005

帖子

2万

积分

超级版主

Rank: 8Rank: 8

积分
20377
 楼主| 发表于 2022-9-20 22:42:18 | 显示全部楼层 |阅读模式
本帖最后由 没完没了 于 2022-10-4 11:02 编辑

QQ图片20220920224134_副本.png

◎译  名 霍比特人3:五军之战 / 哈比人:五军之战(港 / 台) / 哈比人:奇境再返(台) / 哈比人:汗血回归 / 指环王前传:霍比特人(下) / 霍比特人3:去而复返 / There and Back Again
◎片  名 The Hobbit: The Battle of the Five Armies
◎年  代 2014
◎产  地 美国 / 新西兰
◎类  别 动作 / 奇幻 / 冒险
◎语  言 英语
◎上映日期 2015-01-23(中国大陆) / 2014-12-17(美国)
◎IMDb评分 7.4/10 from 526430 users 更新 : 2022-09-20
◎IMDb链接 https://www.imdb.com/title/tt2310332/
◎豆瓣评分 8.6/10 from 361875 users 更新 : 2022-09-20
◎豆瓣链接 https://movie.douban.com/subject/2973079/
◎片  长 144分钟
◎导  演 彼得·杰克逊 Peter Jackson
◎编  剧 弗兰·威尔士 Fran Walsh / 菲利帕·鲍恩斯 Philippa Boyens  / 彼得·杰克逊 Peter Jackson / 吉尔莫·德尔·托罗 Guillermo del Toro / J. R. R. 托尔金 J. R. R. Tolkien
◎演  员 马丁·弗瑞曼 Martin Freeman
       伊恩·麦克莱恩 Ian McKellen
       理查德·阿米蒂奇 Richard Armitage
       伊万杰琳·莉莉 Evangeline Lilly
       李·佩斯 Lee Pace
       卢克·伊万斯 Luke Evans
       本尼迪克特·康伯巴奇 Benedict Cumberbatch
       肯·斯托特 Ken Stott
       詹姆斯·内斯比特 James Nesbitt
       比利·康诺利 Billy Connolly
       凯特·布兰切特 Cate Blanchett
       伊安·霍姆 Ian Holm
       克里斯托弗·李 Christopher Lee
       雨果·维文 Hugo Weaving
       奥兰多·布鲁姆 Orlando Bloom
       马努·贝内特 Manu Bennett
       艾丹·特纳 Aidan Turner
       迪恩·奥戈曼 Dean O'Gorman
       格拉汉姆·麦克泰维什 Graham McTavish
       斯蒂芬·弗雷 Stephen Fry
       米卡埃尔·佩斯布兰特 Mikael Persbrandt
       彼得·杰克逊 Peter Jackson
       伊利亚·伍德 Elijah Wood
       布雷特·麦肯齐 Bret McKenzie
       弗兰·威尔士 Fran Walsh
       托马辛·麦肯齐 Thomasin McKenzie
       西尔维斯特·迈可伊 Sylvester McCoy
       亚当·布朗 Adam Brown
       约翰·贝尔 John Bell
       瑞安·盖奇 Ryan Gage
       柯南·史蒂文斯 Conan Stevens
       杰德·布罗菲 Jed Brophy
       布耐恩·布莱塞得 Brian Blessed
       马克·哈德洛 Mark Hadlow
       约翰·凯伦 John Callen
       彼得·汉布尔顿 Peter Hambleton
       斯蒂芬·亨特 Stephen Hunter
       威廉·基尔舍 William Kircher
       佩吉·内斯比特 Peggy Nesbitt
       玛丽·内斯比特 Mary Nesbitt
       约翰·图伊 John Tui
       基兰·沙阿 Kiran Shah
       鲁比·阿什伯恩·瑟金斯 Ruby Ashbourne Serkis
       周志强 Zhiqiang Zhou
       西蒙·伦顿 Simon London
       马克·米钦森 Mark Mitchinson
       莎拉·皮尔斯 Sarah Peirse
       沙恩·朗吉 Shane Rangi
       彼得·杰克逊 Peter Jackson
       弗兰·威尔士 Fran Walsh
       卡勒姆·葛林 Callum Greene
       阿兰·霍恩 Alan F. Horn
       霍华德·肖 Howard Shore
       安德鲁·莱斯尼 Andrew Lesnie
       艾伦·李 Alan Lee
       约翰·豪 John Howe
       理查德·泰勒 Richard Taylor
       安·马斯克里 Ann Maskrey
       鲍勃·巴克 Bob Buck
       安迪·瑟金斯 Andy Serkis
       理查德·泰勒 Richard Taylor
       杰森·李·豪顿 Jason Lei Howden
       瑞秋·劳伦森 Rachel Laurenson
       埃里克·赛恩登 Eric Saindon
       迈克尔·科琴斯 Michael Cozens
       阿什利·菲 Ashlee Fidow
       克里斯·莱利 Chris Reilly
       西蒙·伦顿 Simon London

◎简  介

  被吵醒的史矛革大闹长湖镇,最终为人类巴德(卢克·伊万斯 Luke Evans 饰)射杀。索林·橡木盾(理查德·阿米蒂奇 Richard Armitage 饰)多年的夙愿终于实现,孤山埃尔波尔重新回到矮人手中。然而这位矮人王子仿佛被史矛革的贪婪和堆成山的黄金迷惑了心窍,他 疯狂地搜寻象征王位的阿肯宝石,不仅撕毁了付给长湖镇报酬的约定,更拒绝了精灵王(李·佩斯 Lee Pace 饰)索要本族国宝的要求,为此导致三族的战争一触即发。与此同时,苍白半兽人阿索格率领大军浩浩荡荡向孤山逼近。得知消息的灰袍巫师甘道夫(伊恩·麦凯伦 Ian McKellen 饰)从中调停斡旋,而被索林视为唯一朋友的霍比特人比尔博·巴金斯(马丁·弗里曼 Martin John C. Freeman 饰)则掌握着中土命运的关键。五军会战,爆发在即!
本片根据J.R.R·托尔金的同名原著...

◎获奖情况 (共6项)
  第87届奥斯卡金像奖 (2015)
  最佳音效剪辑(提名)

  第43届动画安妮奖 (2016)
  最佳真人电影动画效果(提名)
  最佳真人电影动画角色(提名)

  第21届美国演员工会奖 (2015)
  电影最佳特技群戏(提名)

  第17届美国青少年选择奖 (2015)
  最佳科幻/奇幻电影(提名)

  第2届豆瓣电影年度榜单 (2015)
  1月最受关注电影(提名)

Video
ID : 1
ID in the original source medium : 4113 (0x1011)
Format : HEVC
Format/Info : High Efficiency Video Coding
Format profile : Main 10@L5.1@High
HDR format : Dolby Vision, Version 1.0, dvhe.07.06, BL+EL+RPU, Blu-ray compatible / SMPTE ST 2086, HDR10 compatible
Codec ID : V_MPEGH/ISO/HEVC
Duration : 2 h 44 min
Bit rate : 47.9 Mb/s
Width : 3 840 pixels
Height : 2 160 pixels
Display aspect ratio : 16:9
Frame rate mode : Constant
Frame rate : 23.976 (24000/1001) FPS
Color space : YUV
Chroma subsampling : 4:2:0 (Type 2)
Bit depth : 10 bits
Bits/(Pixel*Frame) : 0.241
Stream size : 54.9 GiB (80%)
Language : English
Default : No
Forced : No
Color range : Limited
Color primaries : BT.2020
Transfer characteristics : PQ
Matrix coefficients : BT.2020 non-constant
Mastering display color primaries : Display P3
Mastering display luminance : min: 0.0050 cd/m2, max: 4000 cd/m2
Maximum Content Light Level : 1163 cd/m2
Maximum Frame-Average Light Level : 162 cd/m2
Original source medium : Blu-ray

Audio #1
ID : 2
ID in the original source medium : 4352 (0x1100)
Format : MLP FBA 16-ch
Format/Info : Meridian Lossless Packing FBA with 16-channel presentation
Commercial name : Dolby TrueHD with Dolby Atmos
Codec ID : A_TRUEHD
Duration : 2 h 44 min
Bit rate mode : Variable
Bit rate : 3 198 kb/s
Maximum bit rate : 4 902 kb/s
Channel(s) : 8 channels
Channel layout : L R C LFE Ls Rs Lb Rb
Sampling rate : 48.0 kHz
Frame rate : 1 200.000 FPS (40 SPF)
Bit depth : 24 bits
Compression mode : Lossless
Stream size : 3.66 GiB (5%)
Title : TrueHD 7.1 Atmos
Language : English
Default : Yes
Forced : No
Original source medium : Blu-ray
Number of dynamic objects : 11
Bed channel count : 1 channel
Bed channel configuration : LFE

Audio #2
ID : 3
Format : DTS XLL
Format/Info : Digital Theater Systems
Commercial name : DTS-HD Master Audio
Codec ID : A_DTS
Duration : 2 h 44 min
Bit rate mode : Variable
Bit rate : 4 214 kb/s
Channel(s) : 8 channels
Channel layout : C L R LFE Lb Rb Lss Rss
Sampling rate : 48.0 kHz
Frame rate : 93.750 FPS (512 SPF)
Bit depth : 24 bits
Compression mode : Lossless
Stream size : 4.83 GiB (7%)
Title : DTS-HD MA 7.1
Language : English
Default : No
Forced : No

Audio #3
ID : 4
ID in the original source medium : 4352 (0x1100)
Format : AC-3
Format/Info : Audio Coding 3
Commercial name : Dolby Digital
Format settings : Dolby Surround EX
Codec ID : A_AC3
Duration : 2 h 44 min
Bit rate mode : Constant
Bit rate : 448 kb/s
Channel(s) : 6 channels
Channel layout : L R C LFE Ls Rs
Sampling rate : 48.0 kHz
Frame rate : 31.250 FPS (1536 SPF)
Compression mode : Lossy
Stream size : 526 MiB (1%)
Title : DD 5.1
Language : English
Service kind : Complete Main
Default : No
Forced : No
Original source medium : Blu-ray

Audio #4
ID : 5
ID in the original source medium : 4353 (0x1101)
Format : DTS XLL
Format/Info : Digital Theater Systems
Commercial name : DTS-HD Master Audio
Codec ID : A_DTS
Duration : 2 h 44 min
Bit rate mode : Variable
Bit rate : 2 770 kb/s
Channel(s) : 8 channels
Channel layout : C L R LFE Lb Rb Lss Rss
Sampling rate : 48.0 kHz
Frame rate : 93.750 FPS (512 SPF)
Bit depth : 16 bits
Compression mode : Lossless
Stream size : 3.17 GiB (5%)
Title : DTS-HD MA 7.1
Language : German
Default : No
Forced : No
Original source medium : Blu-ray

Audio #5
ID : 6
ID in the original source medium : 4354 (0x1102)
Format : AC-3
Format/Info : Audio Coding 3
Commercial name : Dolby Digital
Codec ID : A_AC3
Duration : 2 h 44 min
Bit rate mode : Constant
Bit rate : 448 kb/s
Channel(s) : 6 channels
Channel layout : L R C LFE Ls Rs
Sampling rate : 48.0 kHz
Frame rate : 31.250 FPS (1536 SPF)
Compression mode : Lossy
Stream size : 526 MiB (1%)
Title : DD 5.1
Language : Italian
Service kind : Complete Main
Default : No
Forced : No
Original source medium : Blu-ray

Audio #6
ID : 7
ID in the original source medium : 4355 (0x1103)
Format : AC-3
Format/Info : Audio Coding 3
Commercial name : Dolby Digital
Codec ID : A_AC3
Duration : 2 h 44 min
Bit rate mode : Constant
Bit rate : 448 kb/s
Channel(s) : 6 channels
Channel layout : L R C LFE Ls Rs
Sampling rate : 48.0 kHz
Frame rate : 31.250 FPS (1536 SPF)
Compression mode : Lossy
Stream size : 526 MiB (1%)
Title : DD 5.1
Language : Czech
Service kind : Complete Main
Default : No
Forced : No
Original source medium : Blu-ray

Audio #7
ID : 8
ID in the original source medium : 4356 (0x1104)
Format : AC-3
Format/Info : Audio Coding 3
Commercial name : Dolby Digital
Codec ID : A_AC3
Duration : 2 h 44 min
Bit rate mode : Constant
Bit rate : 448 kb/s
Channel(s) : 6 channels
Channel layout : L R C LFE Ls Rs
Sampling rate : 48.0 kHz
Frame rate : 31.250 FPS (1536 SPF)
Compression mode : Lossy
Stream size : 526 MiB (1%)
Title : DD 5.1
Language : Spanish
Service kind : Complete Main
Default : No
Forced : No
Original source medium : Blu-ray

Text #1
ID : 9
Format : UTF-8
Codec ID : S_TEXT/UTF8
Codec ID/Info : UTF-8 Plain Text
Duration : 2 h 29 min
Bit rate : 29 b/s
Frame rate : 0.151 FPS
Count of elements : 1356
Stream size : 32.9 KiB (0%)
Language : English
Default : Yes
Forced : No

Text #2
ID : 10
Format : UTF-8
Codec ID : S_TEXT/UTF8
Codec ID/Info : UTF-8 Plain Text
Duration : 2 h 29 min
Bit rate : 33 b/s
Frame rate : 0.177 FPS
Count of elements : 1592
Stream size : 36.5 KiB (0%)
Title : SDH
Language : English
Default : No
Forced : No

Text #3
ID : 11
ID in the original source medium : 4768 (0x12A0)
Format : PGS
Muxing mode : zlib
Codec ID : S_HDMV/PGS
Codec ID/Info : Picture based subtitle format used on BDs/HD-DVDs
Duration : 2 h 29 min
Bit rate : 21.2 kb/s
Frame rate : 0.381 FPS
Count of elements : 3422
Stream size : 22.7 MiB (0%)
Language : English
Default : No
Forced : No
Original source medium : Blu-ray

Text #4
ID : 12
ID in the original source medium : 4769 (0x12A1)
Format : PGS
Muxing mode : zlib
Codec ID : S_HDMV/PGS
Codec ID/Info : Picture based subtitle format used on BDs/HD-DVDs
Duration : 2 h 42 min
Bit rate : 23.3 kb/s
Frame rate : 0.359 FPS
Count of elements : 3514
Stream size : 27.2 MiB (0%)
Language : German
Default : No
Forced : No
Original source medium : Blu-ray

Text #5
ID : 13
ID in the original source medium : 4770 (0x12A2)
Format : PGS
Muxing mode : zlib
Codec ID : S_HDMV/PGS
Codec ID/Info : Picture based subtitle format used on BDs/HD-DVDs
Duration : 2 h 43 min
Bit rate : 21.2 kb/s
Frame rate : 0.364 FPS
Count of elements : 3560
Stream size : 24.8 MiB (0%)
Language : Italian
Default : No
Forced : No
Original source medium : Blu-ray

Text #6
ID : 14
ID in the original source medium : 4771 (0x12A3)
Format : PGS
Muxing mode : zlib
Codec ID : S_HDMV/PGS
Codec ID/Info : Picture based subtitle format used on BDs/HD-DVDs
Duration : 2 h 42 min
Bit rate : 16.6 kb/s
Frame rate : 0.321 FPS
Count of elements : 3126
Stream size : 19.2 MiB (0%)
Language : 中文
Default : No
Forced : No
Original source medium : Blu-ray

Text #7
ID : 15
ID in the original source medium : 4772 (0x12A4)
Format : PGS
Muxing mode : zlib
Codec ID : S_HDMV/PGS
Codec ID/Info : Picture based subtitle format used on BDs/HD-DVDs
Duration : 2 h 42 min
Bit rate : 13.3 kb/s
Frame rate : 0.315 FPS
Count of elements : 3072
Stream size : 15.5 MiB (0%)
Language : Korean
Default : No
Forced : No
Original source medium : Blu-ray

Text #8
ID : 16
ID in the original source medium : 4773 (0x12A5)
Format : PGS
Muxing mode : zlib
Codec ID : S_HDMV/PGS
Codec ID/Info : Picture based subtitle format used on BDs/HD-DVDs
Duration : 2 h 43 min
Bit rate : 15.1 kb/s
Frame rate : 0.313 FPS
Count of elements : 3066
Stream size : 17.6 MiB (0%)
Language : Czech
Default : No
Forced : No
Original source medium : Blu-ray

Text #9
ID : 17
ID in the original source medium : 4774 (0x12A6)
Format : PGS
Muxing mode : zlib
Codec ID : S_HDMV/PGS
Codec ID/Info : Picture based subtitle format used on BDs/HD-DVDs
Duration : 2 h 43 min
Bit rate : 16.2 kb/s
Frame rate : 0.315 FPS
Count of elements : 3084
Stream size : 18.9 MiB (0%)
Language : Danish
Default : No
Forced : No
Original source medium : Blu-ray

Text #10
ID : 18
ID in the original source medium : 4775 (0x12A7)
Format : PGS
Muxing mode : zlib
Codec ID : S_HDMV/PGS
Codec ID/Info : Picture based subtitle format used on BDs/HD-DVDs
Duration : 2 h 43 min
Bit rate : 15.4 kb/s
Frame rate : 0.272 FPS
Count of elements : 2660
Stream size : 18.0 MiB (0%)
Language : Finnish
Default : No
Forced : No
Original source medium : Blu-ray

Text #11
ID : 19
ID in the original source medium : 4776 (0x12A8)
Format : PGS
Muxing mode : zlib
Codec ID : S_HDMV/PGS
Codec ID/Info : Picture based subtitle format used on BDs/HD-DVDs
Duration : 2 h 43 min
Bit rate : 16.6 kb/s
Frame rate : 0.312 FPS
Count of elements : 3056
Stream size : 19.3 MiB (0%)
Language : Norwegian
Default : No
Forced : No
Original source medium : Blu-ray

Text #12
ID : 20
ID in the original source medium : 4777 (0x12A9)
Format : PGS
Muxing mode : zlib
Codec ID : S_HDMV/PGS
Codec ID/Info : Picture based subtitle format used on BDs/HD-DVDs
Duration : 2 h 43 min
Bit rate : 15.4 kb/s
Frame rate : 0.307 FPS
Count of elements : 3004
Stream size : 17.9 MiB (0%)
Language : Polish
Default : No
Forced : No
Original source medium : Blu-ray

Text #13
ID : 21
ID in the original source medium : 4778 (0x12AA)
Format : PGS
Muxing mode : zlib
Codec ID : S_HDMV/PGS
Codec ID/Info : Picture based subtitle format used on BDs/HD-DVDs
Duration : 2 h 42 min
Bit rate : 16.2 kb/s
Frame rate : 0.302 FPS
Count of elements : 2946
Stream size : 18.8 MiB (0%)
Language : Swedish
Default : No
Forced : No
Original source medium : Blu-ray

Text #14
ID : 22
ID in the original source medium : 4779 (0x12AB)
Format : PGS
Muxing mode : zlib
Codec ID : S_HDMV/PGS
Codec ID/Info : Picture based subtitle format used on BDs/HD-DVDs
Duration : 2 h 43 min
Bit rate : 16.2 kb/s
Frame rate : 0.316 FPS
Count of elements : 3090
Stream size : 18.9 MiB (0%)
Language : Thai
Default : No
Forced : No
Original source medium : Blu-ray

Text #15
ID : 23
ID in the original source medium : 4780 (0x12AC)
Format : PGS
Muxing mode : zlib
Codec ID : S_HDMV/PGS
Codec ID/Info : Picture based subtitle format used on BDs/HD-DVDs
Duration : 2 h 28 min
Bit rate : 1 191 b/s
Frame rate : 0.019 FPS
Count of elements : 170
Stream size : 1.27 MiB (0%)
Title : FORCED
Language : German
Default : No
Forced : No
Original source medium : Blu-ray

Text #16
ID : 24
ID in the original source medium : 4781 (0x12AD)
Format : PGS
Muxing mode : zlib
Codec ID : S_HDMV/PGS
Codec ID/Info : Picture based subtitle format used on BDs/HD-DVDs
Duration : 2 h 28 min
Bit rate : 1 309 b/s
Frame rate : 0.022 FPS
Count of elements : 192
Stream size : 1.39 MiB (0%)
Title : FORCED
Language : Italian
Default : No
Forced : No
Original source medium : Blu-ray

Text #17
ID : 25
ID in the original source medium : 4782 (0x12AE)
Format : PGS
Muxing mode : zlib
Codec ID : S_HDMV/PGS
Codec ID/Info : Picture based subtitle format used on BDs/HD-DVDs
Duration : 2 h 28 min
Bit rate : 1 104 b/s
Frame rate : 0.022 FPS
Count of elements : 194
Stream size : 1.17 MiB (0%)
Title : FORCED
Language : Czech
Default : No
Forced : No
Original source medium : Blu-ray

Text #18
ID : 26
ID in the original source medium : 4783 (0x12AF)
Format : PGS
Muxing mode : zlib
Codec ID : S_HDMV/PGS
Codec ID/Info : Picture based subtitle format used on BDs/HD-DVDs
Duration : 2 h 43 min
Bit rate : 17.0 kb/s
Frame rate : 0.302 FPS
Count of elements : 2954
Stream size : 19.8 MiB (0%)
Title : FORCED
Language : Spanish
Default : No
Forced : No
Original source medium : Blu-ray

Text #19
ID : 27
ID in the original source medium : 4784 (0x12B0)
Format : PGS
Muxing mode : zlib
Codec ID : S_HDMV/PGS
Codec ID/Info : Picture based subtitle format used on BDs/HD-DVDs
Duration : 2 h 28 min
Bit rate : 1 300 b/s
Frame rate : 0.022 FPS
Count of elements : 192
Stream size : 1.38 MiB (0%)
Title : FORCED
Language : Spanish
Default : No
Forced : No
Original source medium : Blu-ray

Menu
00:00:00.000 : en:Chapter 01
00:05:12.353 : en:Chapter 02
00:12:47.016 : en:Chapter 03
00:13:18.881 : en:Chapter 04
00:18:57.386 : en:Chapter 05
00:23:41.837 : en:Chapter 06
00:24:55.827 : en:Chapter 07
00:26:04.354 : en:Chapter 08
00:27:32.984 : en:Chapter 09
00:35:45.643 : en:Chapter 10
00:36:41.240 : en:Chapter 11
00:40:41.605 : en:Chapter 12
00:42:01.101 : en:Chapter 13
00:43:11.338 : en:Chapter 14
00:46:15.856 : en:Chapter 15
00:51:27.417 : en:Chapter 16
00:54:57.794 : en:Chapter 17
00:56:14.788 : en:Chapter 18
00:58:30.924 : en:Chapter 19
01:00:26.914 : en:Chapter 20
01:02:43.551 : en:Chapter 21
01:06:10.007 : en:Chapter 22
01:12:23.047 : en:Chapter 23
01:17:22.387 : en:Chapter 24
01:20:36.289 : en:Chapter 25
01:24:56.966 : en:Chapter 26
01:28:41.524 : en:Chapter 27
01:30:51.946 : en:Chapter 28
01:33:02.118 : en:Chapter 29
01:35:12.790 : en:Chapter 30
01:38:32.448 : en:Chapter 31
01:39:42.643 : en:Chapter 32
01:41:00.387 : en:Chapter 33
01:45:03.463 : en:Chapter 34
01:47:13.593 : en:Chapter 35
01:49:05.247 : en:Chapter 36
01:50:02.971 : en:Chapter 37
01:52:59.189 : en:Chapter 38
01:53:51.241 : en:Chapter 39
01:57:14.902 : en:Chapter 40
02:05:38.531 : en:Chapter 41
02:12:07.002 : en:Chapter 42
02:15:25.826 : en:Chapter 43
02:18:32.470 : en:Chapter 44
02:20:07.357 : en:Chapter 45
02:22:26.955 : en:Chapter 46
02:26:11.179 : en:Chapter 47
02:30:54.420 : en:Chapter 48

新种资源推荐使用qBittorrent、uTorrent等下载软件,有条件的推荐115更好的下载软件!

霍比特人3:五军之战(68.83GB)
The.Hobbit.The.Battle.of.the.Five.Armies.2014.EXTENDED.PROPER.2160p.BluRay.REMUX.HEVC.DTS-HD.MA.TrueHD.7.1.Atmos-FGT-【2160P蓝光REMUX】
游客,如果您要查看本帖隐藏内容请回复



以下为英文字幕版本
霍比特人3:五军之战(13.37GB)
The.Hobbit.The.Battle.of.the.Five.Armies.2014.EXTENDED.2160p.UHD.BluRay.x265.10bit.HDR.TrueHD.7.1.Atmos
游客,如果您要查看本帖隐藏内容请回复

霍比特人3:五军之战(9.93GB)
The.Hobbit.The.Battle.of.the.Five.Armies.2014.EXTENDED.2160p.UHD.BluRay.x265.10bit.HDR.DDP5.1
游客,如果您要查看本帖隐藏内容请回复




QQ4K海报.gif



上一篇:霍比特人2:史矛革之战 [内嵌中字] (2013) 4K蓝光REMUX版本下载
下一篇:指环王1:护戒使者 [简繁中字] (2001) 4K蓝光REMUX版本下载
回复

使用道具 举报

2

主题

1364

帖子

4108

积分

4K家园VIP

Rank: 9Rank: 9Rank: 9

积分
4108
发表于 2022-9-20 22:42:22 来自手机 | 显示全部楼层
楼主这资源不错,我收藏了
回复 支持 反对

使用道具 举报

0

主题

8668

帖子

2万

积分

4K家园VIP

Rank: 9Rank: 9Rank: 9

积分
20210
发表于 2022-9-20 22:48:40 | 显示全部楼层
太好啦&萬分感謝版主的無私發佈分享%
回复 支持 反对

使用道具 举报

3

主题

1332

帖子

3802

积分

4K家园VIP

Rank: 9Rank: 9Rank: 9

积分
3802
发表于 2022-9-22 05:10:59 来自手机 | 显示全部楼层
楼猪辛苦了,支持一下分享好资源
回复 支持 反对

使用道具 举报

0

主题

57

帖子

792

积分

新手上路

Rank: 1

积分
792
发表于 2022-9-24 03:18:06 | 显示全部楼层
看禁闻http://v.ht/tttd 点击访问
回复

使用道具 举报

0

主题

1360

帖子

4090

积分

4K家园VIP

Rank: 9Rank: 9Rank: 9

积分
4090
发表于 2022-9-24 20:27:18 | 显示全部楼层
多发些资源啊
回复 支持 反对

使用道具 举报

22

主题

1235

帖子

3695

积分

4K家园VIP

Rank: 9Rank: 9Rank: 9

积分
3695
发表于 2022-9-26 03:16:04 来自手机 | 显示全部楼层
4K家园不错,希望这种资源越多越好
回复 支持 反对

使用道具 举报

0

主题

28

帖子

397

积分

新手上路

Rank: 1

积分
397
发表于 3 天前 | 显示全部楼层
感谢楼主的分享
回复 支持 反对

使用道具 举报

6

主题

1236

帖子

3734

积分

4K家园VIP

Rank: 9Rank: 9Rank: 9

积分
3734
发表于 3 天前 | 显示全部楼层
我只是看看啊,不说话
回复 支持 反对

使用道具 举报

您需要登录后才可以回帖 登录 | 立即注册

本版积分规则

精彩图文
Archiver|手机版|TAG|Sitemap|新帖|专题|联系我们:邮箱: 4kjia.com@gmail.com   

4k家园   ©2019