[4K电影] 西德尼[简繁粤中字] / Sidney (2022) 4K高清版本下载

[复制链接]

2333

主题

2482

帖子

1万

积分

超级版主

Rank: 8Rank: 8

积分
17979
 楼主| 发表于 2022-9-23 19:42:39 | 显示全部楼层 |阅读模式
本帖最后由 最爱4K哟 于 2022-9-23 19:53 编辑

QQ图片20220923193349_副本.png

◎标  题 西德尼
◎译  名 西德尼·波蒂埃 / Sidney Poitier / El gran legado de Sidney Poitier
◎片  名 Sidney
◎年  代 2022
◎产  地 美国 / 加拿大
◎类  别 纪录片 / 传记
◎语  言 英语
◎上映日期 2022-09-10(多伦多电影节) / 2022-09-23(美国网络)
◎IMDb评分 8.2/10 from 17 users
◎IMDb链接 https://www.imdb.com/title/tt16977750/
◎豆瓣评分 0/10 from 0 users
◎豆瓣链接 https://movie.douban.com/subject/36060867/
◎片  长 106分钟
◎导  演 雷吉纳·哈德林 Reginald Hudlin
◎编  剧 杰西·詹姆斯·米勒 Jesse James Miller
◎演  员 西德尼·波蒂埃 Sidney Poitier
       丹泽尔·华盛顿 Denzel Washington
       罗伯特·雷德福 Robert Redford
       摩根·弗里曼 Morgan Freeman
       哈莉·贝瑞 Halle Berry
       芭芭拉·史翠珊 Barbra Streisand
       斯派克·李 Spike Lee
       小路易斯·格赛特 Louis Gossett Jr.
       西德尼·塔米娅·波蒂埃 Sydney Tamiia Poitier
       蓝尼·克罗维兹 Lenny Kravitz
       奥普拉·温弗瑞 Oprah Winfrey
       哈里·贝拉方特 Harry Belafonte
       昆西·琼斯 Quincy Jones
       乔安娜·辛库斯 Joanna Shimkus
       凯瑟琳·霍顿 Katharine Houghton
       Lulu Lulu
       安妮卡·波蒂埃 Anika Poitier
       尼尔森·乔治 Nelson George


◎简  介


  一个鼓舞人心的故事,纪念好莱坞传奇人物西德尼·波蒂埃的生活和遗产。9月23日,Sidney将在影院和Apple TV+上首映。
这部纪录片由制片人奥普拉·温弗瑞(Oprah Winfrey)执导,雷金纳德·哈德林(Reginald Hudlin)执导。它向传奇人物西德尼·波蒂埃(Sidney Poitier)致敬,并向他作为好莱坞和民权运动中心的标志性演员、电影制片人和活动家所留下的遗产致敬。。。
Video
ID : 1
Format : HEVC
Format/Info : High Efficiency Video Coding
Format profile : Main 10@L5@High
HDR format : Dolby Vision, Version 1.0, dvhe.05.06, BL+RPU
Codec ID : dvhe
Codec ID/Info : High Efficiency Video Coding with Dolby Vision
Duration : 1 h 51 min
Bit rate : 23.4 Mb/s
Width : 3 840 pixels
Height : 2 160 pixels
Display aspect ratio : 16:9
Frame rate mode : Constant
Frame rate : 23.976 (24000/1001) FPS
Color space : YUV
Chroma subsampling : 4:2:0
Bit depth : 10 bits
Bits/(Pixel*Frame) : 0.118
Stream size : 18.2 GiB (97%)
Default : Yes
Alternate group : 1
Encoded date : UTC 2022-09-23 03:30:25
Tagged date : UTC 2022-09-23 03:32:45
Codec configuration box : hvcC+dvcC

Audio
ID : 2
Format : E-AC-3 JOC
Format/Info : Enhanced AC-3 with Joint Object Coding
Commercial name : Dolby Digital Plus with Dolby Atmos
Codec ID : ec-3
Duration : 1 h 51 min
Bit rate mode : Constant
Bit rate : 768 kb/s
Maximum bit rate : 811 kb/s
Channel(s) : 6 channels
Channel layout : L R C LFE Ls Rs
Sampling rate : 48.0 kHz
Frame rate : 31.250 FPS (1536 SPF)
Compression mode : Lossy
Stream size : 613 MiB (3%)
Title : English
Language : English
Service kind : Complete Main
Default : Yes
Alternate group : 1
Tagged date : UTC 2022-09-23 03:32:45
Complexity index : Not present / 16
Number of dynamic objects : 15
Bed channel count : 1 channel
Bed channel configuration : LFE

Text #1
ID : 3
Format : Timed Text
Codec ID : tx3g
Duration : 1 h 45 min
Bit rate mode : Variable
Bit rate : 120 b/s
Frame rate : 0.620 FPS
Stream size : 93.3 KiB (0%)
Title : English
Language : English
Forced : No
Encoded date : UTC 2022-09-23 03:32:37
Tagged date : UTC 2022-09-23 03:32:45

Text #2
ID : 4
Format : Timed Text
Codec ID : tx3g
Duration : 1 h 45 min
Bit rate mode : Variable
Bit rate : 113 b/s
Frame rate : 0.621 FPS
Stream size : 87.6 KiB (0%)
Title : English
Language : English
Forced : No
Encoded date : UTC 2022-09-23 03:32:37
Tagged date : UTC 2022-09-23 03:32:45

Text #3
ID : 5
Format : Timed Text
Codec ID : tx3g
Duration : 1 h 45 min
Bit rate mode : Variable
Bit rate : 106 b/s
Frame rate : 0.595 FPS
Stream size : 82.5 KiB (0%)
Title : English
Language : English
Forced : No
Encoded date : UTC 2022-09-23 03:32:37
Tagged date : UTC 2022-09-23 03:32:45

Text #4
ID : 6
Format : Timed Text
Codec ID : tx3g
Duration : 1 h 51 min
Bit rate mode : Variable
Bit rate : 139 b/s
Frame rate : 0.607 FPS
Stream size : 114 KiB (0%)
Title : Arabic
Language : Arabic
Forced : No
Encoded date : UTC 2022-09-23 03:32:38
Tagged date : UTC 2022-09-23 03:32:45

Text #5
ID : 7
Format : Timed Text
Codec ID : tx3g
Duration : 1 h 51 min
Bit rate mode : Variable
Bit rate : 153 b/s
Frame rate : 0.541 FPS
Stream size : 125 KiB (0%)
Title : Bulgarian
Language : Bulgarian
Forced : No
Encoded date : UTC 2022-09-23 03:32:38
Tagged date : UTC 2022-09-23 03:32:45

Text #6
ID : 8
Format : Timed Text
Codec ID : tx3g
Duration : 1 h 51 min
Bit rate mode : Variable
Bit rate : 89 b/s
Frame rate : 0.610 FPS
Stream size : 72.3 KiB (0%)
Title : 中文(粤语)
Language : Chinese
Forced : No
Encoded date : UTC 2022-09-23 03:32:39
Tagged date : UTC 2022-09-23 03:32:45

Text #7
ID : 9
Format : Timed Text
Codec ID : tx3g
Duration : 1 h 51 min
Bit rate mode : Variable
Bit rate : 92 b/s
Frame rate : 0.610 FPS
Stream size : 74.9 KiB (0%)
Title : 中文(简体)
Language : Chinese
Forced : No
Encoded date : UTC 2022-09-23 03:32:41
Tagged date : UTC 2022-09-23 03:32:45

Text #8
ID : 10
Format : Timed Text
Codec ID : tx3g
Duration : 1 h 51 min
Bit rate mode : Variable
Bit rate : 91 b/s
Frame rate : 0.610 FPS
Stream size : 74.7 KiB (0%)
Title : 中文(繁体)
Language : Chinese
Forced : No
Encoded date : UTC 2022-09-23 03:32:42
Tagged date : UTC 2022-09-23 03:32:45


Text #9
ID : 11
Format : Timed Text
Codec ID : tx3g
Duration : 1 h 45 min
Bit rate mode : Variable
Bit rate : 97 b/s
Frame rate : 0.557 FPS
Stream size : 75.2 KiB (0%)
Title : Czech
Language : Czech
Forced : No
Encoded date : UTC 2022-09-23 03:32:42
Tagged date : UTC 2022-09-23 03:32:45

Text #10
ID : 12
Format : Timed Text
Codec ID : tx3g
Duration : 1 h 51 min
Bit rate mode : Variable
Bit rate : 87 b/s
Frame rate : 0.433 FPS
Stream size : 70.8 KiB (0%)
Title : Danish
Language : Danish
Forced : No
Encoded date : UTC 2022-09-23 03:32:42
Tagged date : UTC 2022-09-23 03:32:45

Text #11
ID : 13
Format : Timed Text
Codec ID : tx3g
Duration : 1 h 51 min
Bit rate mode : Variable
Bit rate : 84 b/s
Frame rate : 0.412 FPS
Stream size : 68.3 KiB (0%)
Title : Dutch
Language : Dutch
Forced : No
Encoded date : UTC 2022-09-23 03:32:42
Tagged date : UTC 2022-09-23 03:32:45

Text #12
ID : 14
Format : Timed Text
Codec ID : tx3g
Duration : 1 h 51 min
Bit rate mode : Variable
Bit rate : 96 b/s
Frame rate : 0.561 FPS
Stream size : 78.0 KiB (0%)
Title : Estonian
Language : Estonian
Forced : No
Encoded date : UTC 2022-09-23 03:32:42
Tagged date : UTC 2022-09-23 03:32:45

Text #13
ID : 15
Format : Timed Text
Codec ID : tx3g
Duration : 1 h 51 min
Bit rate mode : Variable
Bit rate : 90 b/s
Frame rate : 0.564 FPS
Stream size : 73.9 KiB (0%)
Title : Finnish
Language : Finnish
Forced : No
Encoded date : UTC 2022-09-23 03:32:43
Tagged date : UTC 2022-09-23 03:32:45

Text #14
ID : 16
Format : Timed Text
Codec ID : tx3g
Duration : 1 h 51 min
Bit rate mode : Variable
Bit rate : 90 b/s
Frame rate : 0.587 FPS
Stream size : 73.6 KiB (0%)
Title : French
Language : French
Forced : No
Encoded date : UTC 2022-09-23 03:32:43
Tagged date : UTC 2022-09-23 03:32:45

Text #15
ID : 17
Format : Timed Text
Codec ID : tx3g
Duration : 1 h 51 min
Bit rate mode : Variable
Bit rate : 90 b/s
Frame rate : 0.587 FPS
Stream size : 73.5 KiB (0%)
Title : French
Language : French
Forced : No
Encoded date : UTC 2022-09-23 03:32:43
Tagged date : UTC 2022-09-23 03:32:45

Text #16
ID : 18
Format : Timed Text
Codec ID : tx3g
Duration : 1 h 51 min
Bit rate mode : Variable
Bit rate : 97 b/s
Frame rate : 0.499 FPS
Stream size : 78.8 KiB (0%)
Title : German
Language : German
Forced : No
Encoded date : UTC 2022-09-23 03:32:43
Tagged date : UTC 2022-09-23 03:32:45

Text #17
ID : 19
Format : Timed Text
Codec ID : tx3g
Duration : 1 h 51 min
Bit rate mode : Variable
Bit rate : 165 b/s
Frame rate : 0.566 FPS
Stream size : 135 KiB (0%)
Title : Greek
Language : Greek
Forced : No
Encoded date : UTC 2022-09-23 03:32:43
Tagged date : UTC 2022-09-23 03:32:45

Text #18
ID : 20
Format : Timed Text
Codec ID : tx3g
Duration : 1 h 51 min
Bit rate mode : Variable
Bit rate : 133 b/s
Frame rate : 0.607 FPS
Stream size : 109 KiB (0%)
Title : Hebrew
Language : Hebrew
Forced : No
Encoded date : UTC 2022-09-23 03:32:43
Tagged date : UTC 2022-09-23 03:32:45

Text #19
ID : 21
Format : Timed Text
Codec ID : tx3g
Duration : 1 h 51 min
Bit rate mode : Variable
Bit rate : 261 b/s
Frame rate : 0.608 FPS
Stream size : 213 KiB (0%)
Title : Hindi
Language : Hindi
Forced : No
Encoded date : UTC 2022-09-23 03:32:43
Tagged date : UTC 2022-09-23 03:32:45

Text #20
ID : 22
Format : Timed Text
Codec ID : tx3g
Duration : 1 h 51 min
Bit rate mode : Variable
Bit rate : 107 b/s
Frame rate : 0.589 FPS
Stream size : 87.3 KiB (0%)
Title : Hungarian
Language : Hungarian
Forced : No
Encoded date : UTC 2022-09-23 03:32:43
Tagged date : UTC 2022-09-23 03:32:45

Text #21
ID : 23
Format : Timed Text
Codec ID : tx3g
Duration : 1 h 51 min
Bit rate mode : Variable
Bit rate : 107 b/s
Frame rate : 0.581 FPS
Stream size : 87.7 KiB (0%)
Title : Indonesian
Language : Indonesian
Forced : No
Encoded date : UTC 2022-09-23 03:32:43
Tagged date : UTC 2022-09-23 03:32:45

Text #22
ID : 24
Format : Timed Text
Codec ID : tx3g
Duration : 1 h 51 min
Bit rate mode : Variable
Bit rate : 98 b/s
Frame rate : 0.537 FPS
Stream size : 79.9 KiB (0%)
Title : Italian
Language : Italian
Forced : No
Encoded date : UTC 2022-09-23 03:32:43
Tagged date : UTC 2022-09-23 03:32:45

Text #23
ID : 25
Format : Timed Text
Codec ID : tx3g
Duration : 1 h 51 min
Bit rate mode : Variable
Bit rate : 91 b/s
Frame rate : 0.516 FPS
Stream size : 74.3 KiB (0%)
Title : Japanese
Language : Japanese
Forced : No
Encoded date : UTC 2022-09-23 03:32:43
Tagged date : UTC 2022-09-23 03:32:45

Text #24
ID : 26
Format : Timed Text
Codec ID : tx3g
Duration : 1 h 51 min
Bit rate mode : Variable
Bit rate : 114 b/s
Frame rate : 0.610 FPS
Stream size : 92.9 KiB (0%)
Title : Korean
Language : Korean
Forced : No
Encoded date : UTC 2022-09-23 03:32:44
Tagged date : UTC 2022-09-23 03:32:45

Text #25
ID : 27
Format : Timed Text
Codec ID : tx3g
Duration : 1 h 51 min
Bit rate mode : Variable
Bit rate : 104 b/s
Frame rate : 0.568 FPS
Stream size : 85.3 KiB (0%)
Title : Latvian
Language : Latvian
Forced : No
Encoded date : UTC 2022-09-23 03:32:44
Tagged date : UTC 2022-09-23 03:32:45

Text #26
ID : 28
Format : Timed Text
Codec ID : tx3g
Duration : 1 h 51 min
Bit rate mode : Variable
Bit rate : 105 b/s
Frame rate : 0.609 FPS
Stream size : 85.7 KiB (0%)
Title : Lithuanian
Language : Lithuanian
Forced : No
Encoded date : UTC 2022-09-23 03:32:44
Tagged date : UTC 2022-09-23 03:32:45

Text #27
ID : 29
Format : Timed Text
Codec ID : tx3g
Duration : 1 h 51 min
Bit rate mode : Variable
Bit rate : 97 b/s
Frame rate : 0.583 FPS
Stream size : 79.3 KiB (0%)
Title : Malay
Language : Malay
Forced : No
Encoded date : UTC 2022-09-23 03:32:44
Tagged date : UTC 2022-09-23 03:32:45

Text #28
ID : 30
Format : Timed Text
Codec ID : tx3g
Duration : 1 h 51 min
Bit rate mode : Variable
Bit rate : 90 b/s
Frame rate : 0.440 FPS
Stream size : 73.7 KiB (0%)
Title : Norwegian
Language : Norwegian
Forced : No
Encoded date : UTC 2022-09-23 03:32:44
Tagged date : UTC 2022-09-23 03:32:45

Text #29
ID : 31
Format : Timed Text
Codec ID : tx3g
Duration : 1 h 51 min
Bit rate mode : Variable
Bit rate : 93 b/s
Frame rate : 0.538 FPS
Stream size : 76.2 KiB (0%)
Title : Polish
Language : Polish
Forced : No
Encoded date : UTC 2022-09-23 03:32:44
Tagged date : UTC 2022-09-23 03:32:45

Text #30
ID : 32
Format : Timed Text
Codec ID : tx3g
Duration : 1 h 51 min
Bit rate mode : Variable
Bit rate : 105 b/s
Frame rate : 0.586 FPS
Stream size : 86.0 KiB (0%)
Title : Portuguese
Language : Portuguese
Forced : No
Encoded date : UTC 2022-09-23 03:32:44
Tagged date : UTC 2022-09-23 03:32:45

Text #31
ID : 33
Format : Timed Text
Codec ID : tx3g
Duration : 1 h 51 min
Bit rate mode : Variable
Bit rate : 93 b/s
Frame rate : 0.537 FPS
Stream size : 76.1 KiB (0%)
Title : Portuguese
Language : Portuguese
Forced : No
Encoded date : UTC 2022-09-23 03:32:44
Tagged date : UTC 2022-09-23 03:32:45

Text #32
ID : 34
Format : Timed Text
Codec ID : tx3g
Duration : 1 h 51 min
Bit rate mode : Variable
Bit rate : 165 b/s
Frame rate : 0.607 FPS
Stream size : 135 KiB (0%)
Title : Russian
Language : Russian
Forced : No
Encoded date : UTC 2022-09-23 03:32:44
Tagged date : UTC 2022-09-23 03:32:45

Text #33
ID : 35
Format : Timed Text
Codec ID : tx3g
Duration : 1 h 51 min
Bit rate mode : Variable
Bit rate : 91 b/s
Frame rate : 0.581 FPS
Stream size : 74.3 KiB (0%)
Title : Slovak
Language : Slovak
Forced : No
Encoded date : UTC 2022-09-23 03:32:44
Tagged date : UTC 2022-09-23 03:32:45

Text #34
ID : 36
Format : Timed Text
Codec ID : tx3g
Duration : 1 h 51 min
Bit rate mode : Variable
Bit rate : 84 b/s
Frame rate : 0.549 FPS
Stream size : 68.7 KiB (0%)
Title : Slovenian
Language : Slovenian
Forced : No
Encoded date : UTC 2022-09-23 03:32:44
Tagged date : UTC 2022-09-23 03:32:45

Text #35
ID : 37
Format : Timed Text
Codec ID : tx3g
Duration : 1 h 51 min
Bit rate mode : Variable
Bit rate : 99 b/s
Frame rate : 0.534 FPS
Stream size : 81.2 KiB (0%)
Title : Spanish-EU
Language : Spanish
Forced : No
Encoded date : UTC 2022-09-23 03:32:44
Tagged date : UTC 2022-09-23 03:32:45

Text #36
ID : 38
Format : Timed Text
Codec ID : tx3g
Duration : 1 h 51 min
Bit rate mode : Variable
Bit rate : 91 b/s
Frame rate : 0.580 FPS
Stream size : 74.6 KiB (0%)
Title : Spanish-EU
Language : Spanish
Forced : No
Encoded date : UTC 2022-09-23 03:32:45
Tagged date : UTC 2022-09-23 03:32:45

Text #37
ID : 39
Format : Timed Text
Codec ID : tx3g
Duration : 1 h 51 min
Bit rate mode : Variable
Bit rate : 91 b/s
Frame rate : 0.495 FPS
Stream size : 74.4 KiB (0%)
Title : Swedish
Language : Swedish
Forced : No
Encoded date : UTC 2022-09-23 03:32:45
Tagged date : UTC 2022-09-23 03:32:45

Text #38
ID : 40
Format : Timed Text
Codec ID : tx3g
Duration : 1 h 51 min
Bit rate mode : Variable
Bit rate : 298 b/s
Frame rate : 0.607 FPS
Stream size : 244 KiB (0%)
Title : Tamil
Language : Tamil
Forced : No
Encoded date : UTC 2022-09-23 03:32:45
Tagged date : UTC 2022-09-23 03:32:45

Text #39
ID : 41
Format : Timed Text
Codec ID : tx3g
Duration : 1 h 51 min
Bit rate mode : Variable
Bit rate : 283 b/s
Frame rate : 0.607 FPS
Stream size : 231 KiB (0%)
Title : Telugu
Language : Telugu
Forced : No
Encoded date : UTC 2022-09-23 03:32:45
Tagged date : UTC 2022-09-23 03:32:45

Text #40
ID : 42
Format : Timed Text
Codec ID : tx3g
Duration : 1 h 51 min
Bit rate mode : Variable
Bit rate : 254 b/s
Frame rate : 0.605 FPS
Stream size : 208 KiB (0%)
Title : Thai
Language : Thai
Forced : No
Encoded date : UTC 2022-09-23 03:32:45
Tagged date : UTC 2022-09-23 03:32:45

Text #41
ID : 43
Format : Timed Text
Codec ID : tx3g
Duration : 1 h 51 min
Bit rate mode : Variable
Bit rate : 98 b/s
Frame rate : 0.585 FPS
Stream size : 80.0 KiB (0%)
Title : Turkish
Language : Turkish
Forced : No
Encoded date : UTC 2022-09-23 03:32:45
Tagged date : UTC 2022-09-23 03:32:45

Text #42
ID : 44
Format : Timed Text
Codec ID : tx3g
Duration : 1 h 51 min
Bit rate mode : Variable
Bit rate : 146 b/s
Frame rate : 0.604 FPS
Stream size : 120 KiB (0%)
Title : Ukrainian
Language : Ukrainian
Forced : No
Encoded date : UTC 2022-09-23 03:32:45
Tagged date : UTC 2022-09-23 03:32:45

Text #43
ID : 45
Format : Timed Text
Codec ID : tx3g
Duration : 1 h 51 min
Bit rate mode : Variable
Bit rate : 124 b/s
Frame rate : 0.584 FPS
Stream size : 101 KiB (0%)
Title : Vietnamese
Language : Vietnamese
Forced : No
Encoded date : UTC 2022-09-23 03:32:45
Tagged date : UTC 2022-09-23 03:32:45

资源速度为零或资源敏感被和谐时,推荐使用qBittorrent等下载软件,有条件的推荐115更好的下载软件!

下载地址:


游客,如果您要查看本帖隐藏内容请回复

游客,如果您要查看本帖隐藏内容请回复

游客,如果您要查看本帖隐藏内容请回复

游客,如果您要查看本帖隐藏内容请回复






上一篇:黑湖妖潭 / Creature from the Black Lagoon (1954)4K高清版本下载
下一篇:挖掘 / Dig (2022) 4K高清版本下载
回复

使用道具 举报

1

主题

1428

帖子

4100

积分

4K家园VIP

Rank: 9Rank: 9Rank: 9

积分
4100
发表于 2022-9-23 19:42:45 | 显示全部楼层
支持一下楼主发表的内容
回复 支持 反对

使用道具 举报

26

主题

1295

帖子

3899

积分

4K家园VIP

Rank: 9Rank: 9Rank: 9

积分
3899
发表于 2022-9-24 03:43:12 | 显示全部楼层
鼎力支持!!
回复 支持 反对

使用道具 举报

5

主题

1504

帖子

4356

积分

4K家园VIP

Rank: 9Rank: 9Rank: 9

积分
4356
发表于 2022-9-24 16:07:38 | 显示全部楼层
哈哈,我只看看不说话
回复 支持 反对

使用道具 举报

0

主题

1394

帖子

4016

积分

中级会员

Rank: 4

积分
4016
发表于 2022-9-24 18:48:34 | 显示全部楼层
非常好,顶一下
回复 支持 反对

使用道具 举报

0

主题

1350

帖子

4078

积分

4K家园VIP

Rank: 9Rank: 9Rank: 9

积分
4078
发表于 2022-9-24 22:28:12 | 显示全部楼层
支持,赞一个
回复 支持 反对

使用道具 举报

您需要登录后才可以回帖 登录 | 立即注册

本版积分规则

精彩图文
Archiver|手机版|TAG|Sitemap|新帖|专题|联系我们:邮箱: 4kjia.com@gmail.com   

4k家园   ©2019