[4K美女视频] 2019第10届台湾小姐泳装赛9号参赛者走秀] [2160P/MP4/339MB]

[复制链接]

1223

主题

1369

帖子

9363

积分

超级版主

Rank: 8Rank: 8

积分
9363
 楼主| 发表于 2019-8-1 22:10:25 | 显示全部楼层 |阅读模式

2019第10届台湾小姐泳装赛9号参赛者走秀].mp4_20190728_160319.095.jpg 2019第10届台湾小姐泳装赛9号参赛者走秀].mp4_20190728_160352.253.jpg 2019第10届台湾小姐泳装赛9号参赛者走秀].mp4_20190728_160359.173.jpg 2019第10届台湾小姐泳装赛9号参赛者走秀].mp4_20190728_160404.623.jpg 2019第10届台湾小姐泳装赛9号参赛者走秀].mp4.jpg

General
Complete name                  :2019第10届台湾小姐泳装赛9号参赛者走秀].mp4
Format                         : MPEG-4
Format profile                 : Base Media
Codec ID                       : isom (isom/iso2/avc1/mp41)
File size                      : 340 MiB
Duration                       : 3 min 8 s
Overall bit rate               : 15.1 Mb/s
Writing application            : Lavf58.12.100

Video
ID                             : 1
Format                         : AVC
Format/Info                    : Advanced Video Codec
Format profile                 : High@L5.1
Format settings                : CABAC / 4 Ref Frames
Format settings, CABAC         : Yes
Format settings, Reference fra : 4 frames
Codec ID                       : avc1
Codec ID/Info                  : Advanced Video Coding
Duration                       : 3 min 8 s
Bit rate                       : 15.0 Mb/s
Width                          : 3 836 pixels
Height                         : 1 944 pixels
Display aspect ratio           : 1.973
Frame rate mode                : Constant
Frame rate                     : 29.000 FPS
Color space                    : YUV
Chroma subsampling             : 4:2:0
Bit depth                      : 8 bits
Scan type                      : Progressive
Bits/(Pixel*Frame)             : 0.069
Stream size                    : 336 MiB (99%)
Writing library                : x264 core 148
Encoding settings              : cabac=1 / ref=3 / deblock=1:0:0 / analyse=0x3:0x113 / me=hex / subme=7 / psy=1 / psy_rd=1.00:0.00 / mixed_ref=1 / me_range=16 / chroma_me=1 / trellis=1 / 8x8dct=1 / cqm=0 / deadzone=21,11 / fast_pskip=1 / chroma_qp_offset=-2 / threads=6 / lookahead_threads=1 / sliced_threads=0 / nr=0 / decimate=1 / interlaced=0 / bluray_compat=0 / constrained_intra=0 / bframes=3 / b_pyramid=2 / b_adapt=1 / b_bias=0 / direct=1 / weightb=1 / open_gop=0 / weightp=2 / keyint=250 / keyint_min=25 / scenecut=40 / intra_refresh=0 / rc_lookahead=40 / rc=abr / mbtree=1 / bitrate=15000 / ratetol=1.0 / qcomp=0.60 / qpmin=0 / qpmax=69 / qpstep=4 / ip_ratio=1.40 / aq=1:1.00
Language                       : English
Codec configuration box        : avcC

Audio
ID                             : 2
Format                         : AAC LC
Format/Info                    : Advanced Audio Codec Low Complexity
Codec ID                       : mp4a-40-2
Duration                       : 3 min 8 s
Bit rate mode                  : Constant
Bit rate                       : 129 kb/s
Channel(s)                     : 2 channels
Channel layout                 : L R
Sampling rate                  : 44.1 kHz
Frame rate                     : 43.066 FPS (1024 SPF)
Compression mode               : Lossy
Stream size                    : 2.90 MiB (1%)
Language                       : English
Default                        : Yes
Alternate group                : 1


网盘下载失效不补:链接: https://pan.baidu.com/s/1irQBTJDK8UooMHsP9iVBeg
****此区域为收费内容****    需支付 15 金币后可查看立即购买




.



上一篇:2019美国迈阿密泳装秀-黑胶带艺术 [2160P/MP4/1.34GB]
下一篇:JKF女郎性感旋转寿司[2160P/MP4/443MB]
回复

使用道具 举报

0

主题

1289

帖子

3405

积分

4K家园VIP

Rank: 9Rank: 9Rank: 9

积分
3405
发表于 2019-8-1 22:10:29 | 显示全部楼层
怎么这么大,希望我电视能看啊
回复 支持 反对

使用道具 举报

0

主题

888

帖子

3781

积分

中级会员

Rank: 4

积分
3781
发表于 2019-8-2 00:57:24 | 显示全部楼层

感谢楼主分享,我默默顶一下,楼主再接再厉!
回复 支持 反对

使用道具 举报

0

主题

13

帖子

46

积分

新手上路

Rank: 1

积分
46
发表于 2019-8-2 10:07:35 | 显示全部楼层
楼主发贴辛苦了,谢谢楼主分享!我觉得来4K家园是注册对了!
回复 支持 反对

使用道具 举报

1

主题

5

帖子

638

积分

新手上路

Rank: 1

积分
638
发表于 2019-8-2 10:34:01 | 显示全部楼层
楼主厲害!再接再厉!感谢楼主分享
回复 支持 反对

使用道具 举报

55

主题

1111

帖子

3185

积分

4K家园VIP

Rank: 9Rank: 9Rank: 9

积分
3185
发表于 2019-8-3 22:13:59 | 显示全部楼层
支持支持再支持
回复 支持 反对

使用道具 举报

0

主题

975

帖子

2739

积分

4K家园VIP

Rank: 9Rank: 9Rank: 9

积分
2739
发表于 2019-8-4 08:33:02 | 显示全部楼层
我也是坐沙发的
回复 支持 反对

使用道具 举报

56

主题

1165

帖子

3349

积分

4K家园VIP

Rank: 9Rank: 9Rank: 9

积分
3349
发表于 2019-8-4 20:27:16 | 显示全部楼层
4K家园资源不错,前排支持
回复 支持 反对

使用道具 举报

57

主题

1111

帖子

3155

积分

4K家园VIP

Rank: 9Rank: 9Rank: 9

积分
3155
发表于 2019-8-4 21:32:26 | 显示全部楼层
多发些资源啊
回复 支持 反对

使用道具 举报

0

主题

8335

帖子

9598

积分

金牌会员

Rank: 6Rank: 6

积分
9598
发表于 2019-9-29 17:59:16 | 显示全部楼层
其实我一直觉得楼主的品味不错!呵呵!4K家园真是太棒了!
回复 支持 反对

使用道具 举报

您需要登录后才可以回帖 登录 | 立即注册

本版积分规则

精彩图文
关闭

站长推荐上一条 /1 下一条

Archiver|手机版|TAG|Sitemap|新帖|专题|联系我们:邮箱: 4kjia.com@gmail.com   

4k家园   ©2019