[4K电影] 我一直知道你去年夏天干了什么 (2006) 4K高清版本下载

[复制链接]

主题

帖子

0

积分

超级版主

Rank: 8Rank: 8

积分
0
 楼主| 发表于 2022-11-28 20:49:15 | 显示全部楼层 |阅读模式
本帖最后由 最爱4K哟 于 2022-12-8 13:01 编辑

QQ图片20221128204358_副本.png

◎译  名 旧年暑假再3有鬼 / 又是谁搞的鬼?
◎片  名 I'll Always Know What You Did Last Summer
◎年  代 2006
◎产  地 美国
◎类  别 悬疑 / 惊悚 / 恐怖
◎语  言 英语
◎上映日期 2006-06-21
◎IMDb评分 3.4/10 from 12281 users 更新 : 2022-11-25
◎IMDb链接 https://www.imdb.com/title/tt0469111/
◎豆瓣评分 5.2/10 (3620 users 更新 : 2022-11-28
◎豆瓣链接 https://movie.douban.com/subject/1485255/
◎片  长 92 分钟
◎导  演 西尔维恩·怀特 Sylvain White
◎编  剧 路易斯·邓肯 Lois Duncan
◎演  员 布鲁克·尼文 Brooke Nevin
       大卫·佩特考 David Paetkau
       托里·德维托 Torrey DeVitto
       本·伊斯特 Ben Easter
       赛斯·帕卡德 Seth Packard
       唐·山克斯 Don Shanks
       迈克尔·弗林 Michael Flynn
       K·C·克莱德 K.C. Clyde


◎简  介


    前两部远在8、9年前,当时尚未与瑞斯·维瑟斯彭订下终身的雷恩·菲利普,贡献了正面全裸的帅哥出浴戏;而萨拉·米歇尔·盖拉也正因为参演该系列被封为“惊叫皇后”,才有缘出演了其后的《诱惑性游戏》和《咒怨美国版》。      物是人非事事休。等到《电锯惊魂》这样的小喽喽都被委以重任、变身“先锋廖化”的时候,《我知道》系列才想起来完成三部曲的最终章,未免英雄迟暮——当年一时瑜亮的死对头《夺命狂呼》早已曲终人散——而在毫无敬老意识的可畏后生们左右夹攻之下,想独孤求败俨然是南柯大梦。《我知道你去年夏天干了什么》、《我依然知道你去年夏天干了什么》、《我一直知道你去年夏天干了什么》……据说索尼正在开展第四集的征名活动!?

Video
ID : 1
Format : HEVC
Format/Info : High Efficiency Video Coding
Format profile : Main 10@L5@High
HDR format : Dolby Vision, Version 1.0, dvhe.05.06, BL+RPU
Codec ID : dvhe
Codec ID/Info : High Efficiency Video Coding with Dolby Vision
Duration : 1 h 32 min
Bit rate : 24.7 Mb/s
Width : 3 840 pixels
Original width : 3 836 pixels
Height : 2 072 pixels
Display aspect ratio : 1.85:1
Original display aspect ratio : 1.85:1
Frame rate mode : Constant
Frame rate : 23.976 (24000/1001) FPS
Color space : YUV
Chroma subsampling : 4:2:0
Bit depth : 10 bits
Bits/(Pixel*Frame) : 0.130
Stream size : 16.0 GiB (98%)
Default : Yes
Alternate group : 1
Encoded date : UTC 2022-11-28 09:42:04
Tagged date : UTC 2022-11-28 09:45:08
Codec configuration box : hvcC+dvcC

Audio
ID : 2
Format : AC-3
Format/Info : Audio Coding 3
Commercial name : Dolby Digital
Codec ID : ac-3
Duration : 1 h 32 min
Bit rate mode : Constant
Bit rate : 384 kb/s
Maximum bit rate : 406 kb/s
Channel(s) : 6 channels
Channel layout : L R C LFE Ls Rs
Sampling rate : 48.0 kHz
Frame rate : 31.250 FPS (1536 SPF)
Compression mode : Lossy
Stream size : 254 MiB (2%)
Title : English
Language : English
Service kind : Complete Main
Default : Yes
Alternate group : 1
Tagged date : UTC 2022-11-28 09:45:08

Text #1
ID : 3
Format : Timed Text
Codec ID : tx3g
Duration : 1 h 29 min
Bit rate mode : Variable
Bit rate : 53 b/s
Frame rate : 0.364 FPS
Stream size : 34.9 KiB (0%)
Title : English
Language : English
Forced : No
Encoded date : UTC 2022-11-28 09:45:08
Tagged date : UTC 2022-11-28 09:45:08

Text #2
ID : 4
Format : Timed Text
Codec ID : tx3g
Duration : 1 h 28 min
Bit rate mode : Variable
Bit rate : 42 b/s
Frame rate : 0.271 FPS
Stream size : 26.9 KiB (0%)
Title : French
Language : French
Forced : No
Encoded date : UTC 2022-11-28 09:45:08
Tagged date : UTC 2022-11-28 09:45:08

推荐使用qBittorrent、uTorrent、BitComet等下载软件,有条件的推荐115或会员软件下载!

下载地址:

游客,如果您要查看本帖隐藏内容请回复

游客,如果您要查看本帖隐藏内容请回复

游客,如果您要查看本帖隐藏内容请回复





上一篇:365天:今时之欲 [简繁中字] / 365 Days (2022) 4K高清版本下载
下一篇:复仇之渊[简繁中字] / The Harder They Fall (2021) 4K高清版本下载
回复

使用道具 举报

主题

帖子

0

积分

新手上路

Rank: 1

积分
0
发表于 2022-11-29 11:30:50 | 显示全部楼层
谢谢楼主分享
回复 支持 反对

使用道具 举报

您需要登录后才可以回帖 登录 | 立即注册

本版积分规则

精彩图文
Archiver|手机版|TAG|Sitemap|新帖|专题|联系我们:邮箱: 4kjia.com@gmail.com   

4k家园   ©2019