[4K电影] 戴安娜:音乐剧 [简繁中字] (2021) 4K高清版下载

[复制链接]

主题

帖子

0

积分

超级版主

Rank: 8Rank: 8

积分
0
 楼主| 发表于 2022-11-29 21:12:24 | 显示全部楼层 |阅读模式
戴安娜:音乐剧.png

◎标  题 戴安娜:音乐剧
◎译  名 Diana: A True Musical Story
◎片  名 Diana: A New Musical
◎年  代 2021
◎产  地 美国
◎类  别 剧情 / 歌舞 / 传记
◎语  言 英语
◎上映日期 2021-10-01(美国)
◎IMDb评分         4.4/10 from 1356 users file:///C:\Users\36553\AppData\Local\Temp\qqpyimg1669727582.gif 更新 : 2022-11-29
◎IMDb链接 https://www.imdb.com/title/tt12885272/
◎豆瓣评分 6.5/10 from 343 users   更新 : 2022-11-29
◎豆瓣链接 https://movie.douban.com/subject/35182248/
◎片  长 117分钟
◎导  演 克里斯托弗·阿什利 Christopher Ashley / 阿什利·克里斯托弗 Ashley Christopher
◎编  剧 大卫·布赖恩 David Bryan
◎演  员 珍娜·德·瓦尔 Jeanna de Waal
       罗伊·哈特拉姆 Roe Hartrampf
       朱迪·凯 Judy Kaye


◎简  介


  这部原创音乐剧以黛安娜王妃璀璨又心碎的人生为主轴,在百老汇正式开演前事先录制完成。

Video
ID : 1
Format : HEVC
Format/Info : High Efficiency Video Coding
Format profile : Main 10@L5@Main
HDR format : Dolby Vision, Version 1.0, dvhe.08.06, BL+RPU, HDR10 compatible / SMPTE ST 2086, HDR10 compatible
Codec ID : V_MPEGH/ISO/HEVC
Duration : 1 h 57 min
Bit rate : 14.4 Mb/s
Width : 3 840 pixels
Height : 2 160 pixels
Display aspect ratio : 16:9
Frame rate mode : Constant
Frame rate : 24.000 FPS
Color space : YUV
Chroma subsampling : 4:2:0 (Type 2)
Bit depth : 10 bits
Bits/(Pixel*Frame) : 0.072
Stream size : 11.9 GiB (95%)
Default : Yes
Forced : No
Color range : Limited
Color primaries : BT.2020
Transfer characteristics : PQ
Matrix coefficients : BT.2020 non-constant
Mastering display color primaries : Display P3
Mastering display luminance : min: 0.0001 cd/m2, max: 1000 cd/m2
Maximum Content Light Level : 2183 cd/m2
Maximum Frame-Average Light Level : 393 cd/m2

Audio
ID : 2
Format : E-AC-3 JOC
Format/Info : Enhanced AC-3 with Joint Object Coding
Commercial name : Dolby Digital Plus with Dolby Atmos
Codec ID : A_EAC3
Duration : 1 h 57 min
Bit rate mode : Constant
Bit rate : 768 kb/s
Channel(s) : 6 channels
Channel layout : L R C LFE Ls Rs
Sampling rate : 48.0 kHz
Frame rate : 31.250 FPS (1536 SPF)
Compression mode : Lossy
Stream size : 648 MiB (5%)
Language : English
Service kind : Complete Main
Default : Yes
Forced : No
Complexity index : 16
Number of dynamic objects : 15
Bed channel count : 1 channel
Bed channel configuration : LFE

Text #1
ID : 3
Format : UTF-8
Codec ID : S_TEXT/UTF8
Codec ID/Info : UTF-8 Plain Text
Duration : 1 h 55 min
Bit rate : 36 b/s
Frame rate : 0.121 FPS
Count of elements : 840
Stream size : 31.2 KiB (0%)
Language : English
Default : No
Forced : No

Text #2
ID : 4
Format : UTF-8
Codec ID : S_TEXT/UTF8
Codec ID/Info : UTF-8 Plain Text
Duration : 1 h 57 min
Bit rate : 104 b/s
Frame rate : 0.303 FPS
Count of elements : 2139
Stream size : 89.7 KiB (0%)
Title : SDH
Language : English
Default : No
Forced : No

Text #3
ID : 5
Format : UTF-8
Codec ID : S_TEXT/UTF8
Codec ID/Info : UTF-8 Plain Text
Duration : 1 h 57 min
Bit rate : 116 b/s
Frame rate : 0.288 FPS
Count of elements : 2036
Stream size : 101 KiB (0%)
Language : Arabic
Default : No
Forced : No

Text #4
ID : 6
Format : UTF-8
Codec ID : S_TEXT/UTF8
Codec ID/Info : UTF-8 Plain Text
Duration : 1 h 57 min
Bit rate : 80 b/s
Frame rate : 0.285 FPS
Count of elements : 2013
Stream size : 69.7 KiB (0%)
Language : Czech
Default : No
Forced : No

Text #5
ID : 7
Format : UTF-8
Codec ID : S_TEXT/UTF8
Codec ID/Info : UTF-8 Plain Text
Duration : 1 h 57 min
Bit rate : 77 b/s
Frame rate : 0.282 FPS
Count of elements : 1995
Stream size : 67.0 KiB (0%)
Language : Danish
Default : No
Forced : No

Text #6
ID : 8
Format : UTF-8
Codec ID : S_TEXT/UTF8
Codec ID/Info : UTF-8 Plain Text
Duration : 1 h 57 min
Bit rate : 85 b/s
Frame rate : 0.279 FPS
Count of elements : 1973
Stream size : 73.4 KiB (0%)
Language : German
Default : No
Forced : No

Text #7
ID : 9
Format : UTF-8
Codec ID : S_TEXT/UTF8
Codec ID/Info : UTF-8 Plain Text
Duration : 1 h 57 min
Bit rate : 132 b/s
Frame rate : 0.284 FPS
Count of elements : 2006
Stream size : 114 KiB (0%)
Language : Greek
Default : No
Forced : No

Text #8
ID : 10
Format : UTF-8
Codec ID : S_TEXT/UTF8
Codec ID/Info : UTF-8 Plain Text
Duration : 1 h 57 min
Bit rate : 82 b/s
Frame rate : 0.283 FPS
Count of elements : 2002
Stream size : 70.9 KiB (0%)
Title : Latin American
Language : Spanish
Default : No
Forced : No

Text #9
ID : 11
Format : UTF-8
Codec ID : S_TEXT/UTF8
Codec ID/Info : UTF-8 Plain Text
Duration : 1 h 57 min
Bit rate : 84 b/s
Frame rate : 0.286 FPS
Count of elements : 2019
Stream size : 73.1 KiB (0%)
Language : Spanish
Default : No
Forced : No

Text #10
ID : 12
Format : UTF-8
Codec ID : S_TEXT/UTF8
Codec ID/Info : UTF-8 Plain Text
Duration : 1 h 57 min
Bit rate : 75 b/s
Frame rate : 0.251 FPS
Count of elements : 1774
Stream size : 65.4 KiB (0%)
Language : Finnish
Default : No
Forced : No

Text #11
ID : 13
Format : UTF-8
Codec ID : S_TEXT/UTF8
Codec ID/Info : UTF-8 Plain Text
Duration : 1 h 57 min
Bit rate : 82 b/s
Frame rate : 0.271 FPS
Count of elements : 1913
Stream size : 71.3 KiB (0%)
Language : French
Default : No
Forced : No

Text #12
ID : 14
Format : UTF-8
Codec ID : S_TEXT/UTF8
Codec ID/Info : UTF-8 Plain Text
Duration : 1 h 57 min
Bit rate : 119 b/s
Frame rate : 0.275 FPS
Count of elements : 1946
Stream size : 103 KiB (0%)
Language : Hebrew
Default : No
Forced : No

Text #13
ID : 15
Format : UTF-8
Codec ID : S_TEXT/UTF8
Codec ID/Info : UTF-8 Plain Text
Duration : 1 h 57 min
Bit rate : 77 b/s
Frame rate : 0.282 FPS
Count of elements : 1992
Stream size : 66.6 KiB (0%)
Language : Croatian
Default : No
Forced : No

Text #14
ID : 16
Format : UTF-8
Codec ID : S_TEXT/UTF8
Codec ID/Info : UTF-8 Plain Text
Duration : 1 h 57 min
Bit rate : 84 b/s
Frame rate : 0.281 FPS
Count of elements : 1988
Stream size : 72.4 KiB (0%)
Language : Hungarian
Default : No
Forced : No

Text #15
ID : 17
Format : UTF-8
Codec ID : S_TEXT/UTF8
Codec ID/Info : UTF-8 Plain Text
Duration : 1 h 57 min
Bit rate : 82 b/s
Frame rate : 0.286 FPS
Count of elements : 2020
Stream size : 71.3 KiB (0%)
Language : Indonesian
Default : No
Forced : No

Text #16
ID : 18
Format : UTF-8
Codec ID : S_TEXT/UTF8
Codec ID/Info : UTF-8 Plain Text
Duration : 1 h 57 min
Bit rate : 77 b/s
Frame rate : 0.280 FPS
Count of elements : 1981
Stream size : 67.2 KiB (0%)
Language : Italian
Default : No
Forced : No

Text #17
ID : 19
Format : UTF-8
Codec ID : S_TEXT/UTF8
Codec ID/Info : UTF-8 Plain Text
Duration : 1 h 57 min
Bit rate : 76 b/s
Frame rate : 0.285 FPS
Count of elements : 2015
Stream size : 66.1 KiB (0%)
Language : Japanese
Default : No
Forced : No

Text #18
ID : 20
Format : UTF-8
Codec ID : S_TEXT/UTF8
Codec ID/Info : UTF-8 Plain Text
Duration : 1 h 57 min
Bit rate : 93 b/s
Frame rate : 0.290 FPS
Count of elements : 2045
Stream size : 80.4 KiB (0%)
Language : Korean
Default : No
Forced : No

Text #19
ID : 21
Format : UTF-8
Codec ID : S_TEXT/UTF8
Codec ID/Info : UTF-8 Plain Text
Duration : 1 h 57 min
Bit rate : 82 b/s
Frame rate : 0.287 FPS
Count of elements : 2025
Stream size : 71.2 KiB (0%)
Language : Malay
Default : No
Forced : No

Text #20
ID : 22
Format : UTF-8
Codec ID : S_TEXT/UTF8
Codec ID/Info : UTF-8 Plain Text
Duration : 1 h 57 min
Bit rate : 85 b/s
Frame rate : 0.253 FPS
Count of elements : 1787
Stream size : 73.6 KiB (0%)
Language : Norwegian Bokmal
Default : No
Forced : No

Text #21
ID : 23
Format : UTF-8
Codec ID : S_TEXT/UTF8
Codec ID/Info : UTF-8 Plain Text
Duration : 1 h 57 min
Bit rate : 76 b/s
Frame rate : 0.271 FPS
Count of elements : 1914
Stream size : 66.2 KiB (0%)
Language : Dutch
Default : No
Forced : No

Text #22
ID : 24
Format : UTF-8
Codec ID : S_TEXT/UTF8
Codec ID/Info : UTF-8 Plain Text
Duration : 1 h 57 min
Bit rate : 82 b/s
Frame rate : 0.278 FPS
Count of elements : 1966
Stream size : 71.3 KiB (0%)
Language : Polish
Default : No
Forced : No

Text #23
ID : 25
Format : UTF-8
Codec ID : S_TEXT/UTF8
Codec ID/Info : UTF-8 Plain Text
Duration : 1 h 57 min
Bit rate : 83 b/s
Frame rate : 0.282 FPS
Count of elements : 1995
Stream size : 72.0 KiB (0%)
Title : Brazilian
Language : Portuguese
Default : No
Forced : No

Text #24
ID : 26
Format : UTF-8
Codec ID : S_TEXT/UTF8
Codec ID/Info : UTF-8 Plain Text
Duration : 1 h 57 min
Bit rate : 84 b/s
Frame rate : 0.328 FPS
Count of elements : 2317
Stream size : 73.1 KiB (0%)
Language : Portuguese
Default : No
Forced : No

Text #25
ID : 27
Format : UTF-8
Codec ID : S_TEXT/UTF8
Codec ID/Info : UTF-8 Plain Text
Duration : 1 h 57 min
Bit rate : 91 b/s
Frame rate : 0.281 FPS
Count of elements : 1982
Stream size : 78.8 KiB (0%)
Language : Romanian
Default : No
Forced : No

Text #26
ID : 28
Format : UTF-8
Codec ID : S_TEXT/UTF8
Codec ID/Info : UTF-8 Plain Text
Duration : 1 h 57 min
Bit rate : 119 b/s
Frame rate : 0.286 FPS
Count of elements : 2022
Stream size : 103 KiB (0%)
Language : Russian
Default : No
Forced : No

Text #27
ID : 29
Format : UTF-8
Codec ID : S_TEXT/UTF8
Codec ID/Info : UTF-8 Plain Text
Duration : 1 h 57 min
Bit rate : 75 b/s
Frame rate : 0.261 FPS
Count of elements : 1845
Stream size : 65.1 KiB (0%)
Language : Swedish
Default : No
Forced : No

Text #28
ID : 30
Format : UTF-8
Codec ID : S_TEXT/UTF8
Codec ID/Info : UTF-8 Plain Text
Duration : 1 h 57 min
Bit rate : 198 b/s
Frame rate : 0.287 FPS
Count of elements : 2025
Stream size : 171 KiB (0%)
Language : Thai
Default : No
Forced : No

Text #29
ID : 31
Format : UTF-8
Codec ID : S_TEXT/UTF8
Codec ID/Info : UTF-8 Plain Text
Duration : 1 h 57 min
Bit rate : 85 b/s
Frame rate : 0.273 FPS
Count of elements : 1930
Stream size : 73.4 KiB (0%)
Language : Turkish
Default : No
Forced : No

Text #30
ID : 32
Format : UTF-8
Codec ID : S_TEXT/UTF8
Codec ID/Info : UTF-8 Plain Text
Duration : 1 h 57 min
Bit rate : 122 b/s
Frame rate : 0.285 FPS
Count of elements : 2015
Stream size : 105 KiB (0%)
Language : Ukrainian
Default : No
Forced : No

Text #31
ID : 33
Format : UTF-8
Codec ID : S_TEXT/UTF8
Codec ID/Info : UTF-8 Plain Text
Duration : 1 h 57 min
Bit rate : 116 b/s
Frame rate : 0.281 FPS
Count of elements : 1988
Stream size : 100 KiB (0%)
Language : Vietnamese
Default : No
Forced : No

Text #32
ID : 34
Format : UTF-8
Codec ID : S_TEXT/UTF8
Codec ID/Info : UTF-8 Plain Text
Duration : 1 h 57 min
Bit rate : 78 b/s
Frame rate : 0.287 FPS
Count of elements : 2027
Stream size : 67.5 KiB (0%)
Title : 简体中字
Language : Chinese
Default : No
Forced : No

Text #33
ID : 35
Format : UTF-8
Codec ID : S_TEXT/UTF8
Codec ID/Info : UTF-8 Plain Text
Duration : 1 h 57 min
Bit rate : 77 b/s
Frame rate : 0.291 FPS
Count of elements : 2055
Stream size : 66.8 KiB (0%)
Title : 繁体中字
Language : Chinese
Default : No
Forced : No


Menu
01:53:15.000 : en:End Credits


推荐使用qBittorrent、uTorrent、BitComet等下载软件,有条件的推荐115或会员软件下载!

下载地址:


游客,如果您要查看本帖隐藏内容请回复

游客,如果您要查看本帖隐藏内容请回复

游客,如果您要查看本帖隐藏内容请回复

游客,如果您要查看本帖隐藏内容请回复





上一篇:倒数时刻 [简繁中字] / Tick, Tick…Boom! (2021) 4K高清版本下载
下一篇:好莱坞俗套大吐槽 [简繁中字] (2021) 4K高清版下载
回复

使用道具 举报

您需要登录后才可以回帖 登录 | 立即注册

本版积分规则

精彩图文
Archiver|手机版|TAG|Sitemap|新帖|专题|联系我们:邮箱: 4kjia.com@gmail.com   

4k家园   ©2019