[4K电影] 好莱坞俗套大吐槽 [简繁中字] (2021) 4K高清版下载

[复制链接]

主题

帖子

0

积分

超级版主

Rank: 8Rank: 8

积分
0
 楼主| 发表于 2022-11-29 21:17:23 | 显示全部楼层 |阅读模式
好莱坞俗套大吐槽.png

◎标  题 好莱坞俗套大吐槽
◎译  名 好莱坞套路来袭! / 荷里活套路大搜查(港) / 好莱坞老梗大集合(台)
◎片  名 Attack of The Hollywood Clichés!
◎年  代 2021
◎产  地 美国
◎类  别 喜剧 / 纪录片
◎语  言 英语
◎上映日期 2021-09-28(美国)
◎IMDb评分 6.1/10 from 3894 users 更新 : 2022-11-26
◎IMDb链接 https://www.imdb.com/title/tt15292806/
◎豆瓣评分 6.8/10 from 2144 users 更新 : 2022-11-26
◎豆瓣链接 https://movie.douban.com/subject/35580167/
◎片  长 58分钟
◎演  员 罗伯·劳 Rob Lowe
       桑吉夫·巴哈斯卡 Sanjeev Bhaskar
       罗伯特·英格兰德 Robert Englund
       安德鲁·加菲尔德 Andrew Garfield
       理查德·E·格兰特 Richard E. Grant
       山姆·哈格雷夫 Sam Hargrave
       基斯·卢卡斯 Keith Lucas
       肯尼斯·卢卡斯 Kenneth Lucas
       弗洛伦丝·皮尤 Florence Pugh
       Nathan Rabin Nathan Rabin
       乔纳森·罗斯 Jonathan Ross
       詹姆斯·夏慕斯 James Schamus
       Francine Stock Francine Stock
       马克·斯特朗 Mark Strong


◎简  介


  顾名思义将分析吐槽多年来好莱坞影视里的各种套路,比如坏人的设定(总有迷惑台词)、床戏怎么拍(镜头切到门外风雨)、表现人物吃惊必有喷饮料、威廉尖叫、遇事不决蒙太奇……罗伯·劳主持,安德鲁·加菲尔德、安迪·麦克道威尔、弗洛伦丝·皮尤、马克·斯特朗、理查德·E·格兰特、桑吉夫·巴哈斯卡、卢卡斯兄弟等人担任嘉宾,cue到的包括《泰坦尼克号》《阿甘正传》《独立日》《沉默的羔羊》等不少经典名片。

Video
ID : 1
Format : HEVC
Format/Info : High Efficiency Video Coding
Format profile : Main 10@L5@Main
Codec ID : V_MPEGH/ISO/HEVC
Duration : 58 min 17 s
Bit rate : 16.5 Mb/s
Width : 3 840 pixels
Height : 2 160 pixels
Display aspect ratio : 16:9
Frame rate mode : Constant
Frame rate : 24.000 FPS
Color space : YUV
Chroma subsampling : 4:2:0
Bit depth : 10 bits
Bits/(Pixel*Frame) : 0.083
Stream size : 6.72 GiB (96%)
Language : English
Default : Yes
Forced : No
Color range : Limited
Color primaries : BT.709
Transfer characteristics : BT.709
Matrix coefficients : BT.709

Audio
ID : 2
Format : E-AC-3
Format/Info : Enhanced AC-3
Commercial name : Dolby Digital Plus
Codec ID : A_EAC3
Duration : 58 min 17 s
Bit rate mode : Constant
Bit rate : 640 kb/s
Channel(s) : 6 channels
Channel layout : L R C LFE Ls Rs
Sampling rate : 48.0 kHz
Frame rate : 31.250 FPS (1536 SPF)
Compression mode : Lossy
Stream size : 267 MiB (4%)
Language : English
Service kind : Complete Main
Default : Yes
Forced : No

Text #1
ID : 3
Format : UTF-8
Codec ID : S_TEXT/UTF8
Codec ID/Info : UTF-8 Plain Text
Duration : 57 min 0 s
Bit rate : 121 b/s
Frame rate : 0.301 FPS
Count of elements : 1028
Stream size : 50.8 KiB (0%)
Language : English
Default : No
Forced : No

Text #2
ID : 4
Format : UTF-8
Codec ID : S_TEXT/UTF8
Codec ID/Info : UTF-8 Plain Text
Duration : 57 min 8 s
Bit rate : 126 b/s
Frame rate : 0.318 FPS
Count of elements : 1091
Stream size : 52.9 KiB (0%)
Title : SDH
Language : English
Default : No
Forced : No

Text #3
ID : 5
Format : UTF-8
Codec ID : S_TEXT/UTF8
Codec ID/Info : UTF-8 Plain Text
Duration : 58 min 5 s
Bit rate : 179 b/s
Frame rate : 0.317 FPS
Count of elements : 1105
Stream size : 76.4 KiB (0%)
Language : Arabic
Default : No
Forced : No

Text #4
ID : 6
Format : UTF-8
Codec ID : S_TEXT/UTF8
Codec ID/Info : UTF-8 Plain Text
Duration : 58 min 5 s
Bit rate : 116 b/s
Frame rate : 0.320 FPS
Count of elements : 1114
Stream size : 49.7 KiB (0%)
Language : Czech
Default : No
Forced : No

Text #5
ID : 7
Format : UTF-8
Codec ID : S_TEXT/UTF8
Codec ID/Info : UTF-8 Plain Text
Duration : 58 min 5 s
Bit rate : 108 b/s
Frame rate : 0.279 FPS
Count of elements : 973
Stream size : 46.4 KiB (0%)
Language : Danish
Default : No
Forced : No

Text #6
ID : 8
Format : UTF-8
Codec ID : S_TEXT/UTF8
Codec ID/Info : UTF-8 Plain Text
Duration : 58 min 5 s
Bit rate : 108 b/s
Frame rate : 0.302 FPS
Count of elements : 1053
Stream size : 46.1 KiB (0%)
Language : German
Default : No
Forced : No

Text #7
ID : 9
Format : UTF-8
Codec ID : S_TEXT/UTF8
Codec ID/Info : UTF-8 Plain Text
Duration : 58 min 5 s
Bit rate : 182 b/s
Frame rate : 0.310 FPS
Count of elements : 1079
Stream size : 77.5 KiB (0%)
Language : Greek
Default : No
Forced : No

Text #8
ID : 10
Format : UTF-8
Codec ID : S_TEXT/UTF8
Codec ID/Info : UTF-8 Plain Text
Duration : 58 min 5 s
Bit rate : 115 b/s
Frame rate : 0.316 FPS
Count of elements : 1102
Stream size : 49.1 KiB (0%)
Title : Latin American
Language : Spanish
Default : No
Forced : No

Text #9
ID : 11
Format : UTF-8
Codec ID : S_TEXT/UTF8
Codec ID/Info : UTF-8 Plain Text
Duration : 58 min 5 s
Bit rate : 118 b/s
Frame rate : 0.314 FPS
Count of elements : 1095
Stream size : 50.5 KiB (0%)
Language : Spanish
Default : No
Forced : No

Text #10
ID : 12
Format : UTF-8
Codec ID : S_TEXT/UTF8
Codec ID/Info : UTF-8 Plain Text
Duration : 58 min 5 s
Bit rate : 108 b/s
Frame rate : 0.260 FPS
Count of elements : 906
Stream size : 46.2 KiB (0%)
Language : Finnish
Default : No
Forced : No

Text #11
ID : 13
Format : UTF-8
Codec ID : S_TEXT/UTF8
Codec ID/Info : UTF-8 Plain Text
Duration : 58 min 5 s
Bit rate : 115 b/s
Frame rate : 0.306 FPS
Count of elements : 1065
Stream size : 49.2 KiB (0%)
Language : French
Default : No
Forced : No

Text #12
ID : 14
Format : UTF-8
Codec ID : S_TEXT/UTF8
Codec ID/Info : UTF-8 Plain Text
Duration : 58 min 5 s
Bit rate : 181 b/s
Frame rate : 0.345 FPS
Count of elements : 1201
Stream size : 77.2 KiB (0%)
Language : Hebrew
Default : No
Forced : No

Text #13
ID : 15
Format : UTF-8
Codec ID : S_TEXT/UTF8
Codec ID/Info : UTF-8 Plain Text
Duration : 58 min 5 s
Bit rate : 106 b/s
Frame rate : 0.320 FPS
Count of elements : 1117
Stream size : 45.5 KiB (0%)
Language : Croatian
Default : No
Forced : No

Text #14
ID : 16
Format : UTF-8
Codec ID : S_TEXT/UTF8
Codec ID/Info : UTF-8 Plain Text
Duration : 58 min 5 s
Bit rate : 112 b/s
Frame rate : 0.319 FPS
Count of elements : 1111
Stream size : 47.8 KiB (0%)
Language : Hungarian
Default : No
Forced : No

Text #15
ID : 17
Format : UTF-8
Codec ID : S_TEXT/UTF8
Codec ID/Info : UTF-8 Plain Text
Duration : 58 min 5 s
Bit rate : 109 b/s
Frame rate : 0.304 FPS
Count of elements : 1058
Stream size : 46.8 KiB (0%)
Language : Indonesian
Default : No
Forced : No

Text #16
ID : 18
Format : UTF-8
Codec ID : S_TEXT/UTF8
Codec ID/Info : UTF-8 Plain Text
Duration : 58 min 5 s
Bit rate : 112 b/s
Frame rate : 0.315 FPS
Count of elements : 1097
Stream size : 47.7 KiB (0%)
Language : Italian
Default : No
Forced : No

Text #17
ID : 19
Format : UTF-8
Codec ID : S_TEXT/UTF8
Codec ID/Info : UTF-8 Plain Text
Duration : 58 min 5 s
Bit rate : 203 b/s
Frame rate : 0.492 FPS
Count of elements : 1716
Stream size : 86.4 KiB (0%)
Language : Japanese
Default : No
Forced : No

Text #18
ID : 20
Format : UTF-8
Codec ID : S_TEXT/UTF8
Codec ID/Info : UTF-8 Plain Text
Duration : 58 min 5 s
Bit rate : 131 b/s
Frame rate : 0.354 FPS
Count of elements : 1233
Stream size : 56.0 KiB (0%)
Language : Korean
Default : No
Forced : No

Text #19
ID : 21
Format : UTF-8
Codec ID : S_TEXT/UTF8
Codec ID/Info : UTF-8 Plain Text
Duration : 58 min 5 s
Bit rate : 109 b/s
Frame rate : 0.295 FPS
Count of elements : 1028
Stream size : 46.7 KiB (0%)
Language : Malay
Default : No
Forced : No

Text #20
ID : 22
Format : UTF-8
Codec ID : S_TEXT/UTF8
Codec ID/Info : UTF-8 Plain Text
Duration : 58 min 5 s
Bit rate : 105 b/s
Frame rate : 0.279 FPS
Count of elements : 974
Stream size : 45.0 KiB (0%)
Language : Norwegian Bokmal
Default : No
Forced : No

Text #21
ID : 23
Format : UTF-8
Codec ID : S_TEXT/UTF8
Codec ID/Info : UTF-8 Plain Text
Duration : 58 min 5 s
Bit rate : 93 b/s
Frame rate : 0.277 FPS
Count of elements : 966
Stream size : 39.7 KiB (0%)
Language : Dutch
Default : No
Forced : No

Text #22
ID : 24
Format : UTF-8
Codec ID : S_TEXT/UTF8
Codec ID/Info : UTF-8 Plain Text
Duration : 58 min 5 s
Bit rate : 110 b/s
Frame rate : 0.319 FPS
Count of elements : 1113
Stream size : 47.0 KiB (0%)
Language : Polish
Default : No
Forced : No

Text #23
ID : 25
Format : UTF-8
Codec ID : S_TEXT/UTF8
Codec ID/Info : UTF-8 Plain Text
Duration : 58 min 5 s
Bit rate : 113 b/s
Frame rate : 0.307 FPS
Count of elements : 1069
Stream size : 48.5 KiB (0%)
Title : Brazilian
Language : Portuguese
Default : No
Forced : No

Text #24
ID : 26
Format : UTF-8
Codec ID : S_TEXT/UTF8
Codec ID/Info : UTF-8 Plain Text
Duration : 58 min 5 s
Bit rate : 112 b/s
Frame rate : 0.317 FPS
Count of elements : 1105
Stream size : 48.1 KiB (0%)
Language : Portuguese
Default : No
Forced : No

Text #25
ID : 27
Format : UTF-8
Codec ID : S_TEXT/UTF8
Codec ID/Info : UTF-8 Plain Text
Duration : 58 min 5 s
Bit rate : 126 b/s
Frame rate : 0.318 FPS
Count of elements : 1108
Stream size : 54.0 KiB (0%)
Language : Romanian
Default : No
Forced : No

Text #26
ID : 28
Format : UTF-8
Codec ID : S_TEXT/UTF8
Codec ID/Info : UTF-8 Plain Text
Duration : 58 min 5 s
Bit rate : 183 b/s
Frame rate : 0.319 FPS
Count of elements : 1111
Stream size : 77.9 KiB (0%)
Language : Russian
Default : No
Forced : No

Text #27
ID : 29
Format : UTF-8
Codec ID : S_TEXT/UTF8
Codec ID/Info : UTF-8 Plain Text
Duration : 58 min 5 s
Bit rate : 110 b/s
Frame rate : 0.275 FPS
Count of elements : 959
Stream size : 47.1 KiB (0%)
Language : Swedish
Default : No
Forced : No

Text #28
ID : 30
Format : UTF-8
Codec ID : S_TEXT/UTF8
Codec ID/Info : UTF-8 Plain Text
Duration : 58 min 5 s
Bit rate : 274 b/s
Frame rate : 0.323 FPS
Count of elements : 1127
Stream size : 117 KiB (0%)
Language : Thai
Default : No
Forced : No

Text #29
ID : 31
Format : UTF-8
Codec ID : S_TEXT/UTF8
Codec ID/Info : UTF-8 Plain Text
Duration : 58 min 5 s
Bit rate : 117 b/s
Frame rate : 0.320 FPS
Count of elements : 1115
Stream size : 50.2 KiB (0%)
Language : Turkish
Default : No
Forced : No

Text #30
ID : 32
Format : UTF-8
Codec ID : S_TEXT/UTF8
Codec ID/Info : UTF-8 Plain Text
Duration : 58 min 5 s
Bit rate : 178 b/s
Frame rate : 0.323 FPS
Count of elements : 1127
Stream size : 75.9 KiB (0%)
Language : Ukrainian
Default : No
Forced : No

Text #31
ID : 33
Format : UTF-8
Codec ID : S_TEXT/UTF8
Codec ID/Info : UTF-8 Plain Text
Duration : 58 min 5 s
Bit rate : 157 b/s
Frame rate : 0.318 FPS
Count of elements : 1108
Stream size : 66.9 KiB (0%)
Language : Vietnamese
Default : No
Forced : No

Text #32
ID : 34
Format : UTF-8
Codec ID : S_TEXT/UTF8
Codec ID/Info : UTF-8 Plain Text
Duration : 58 min 5 s
Bit rate : 107 b/s
Frame rate : 0.326 FPS
Count of elements : 1137
Stream size : 45.7 KiB (0%)
Title : 简体中字
Language : Chinese
Default : No
Forced : No

Text #33
ID : 35
Format : UTF-8
Codec ID : S_TEXT/UTF8
Codec ID/Info : UTF-8 Plain Text
Duration : 58 min 5 s
Bit rate : 104 b/s
Frame rate : 0.334 FPS
Count of elements : 1165
Stream size : 44.4 KiB (0%)
Title : 繁体中字
Language : Chinese
Default : No
Forced : No


推荐使用qBittorrent、uTorrent、BitComet等下载软件,有条件的推荐115或会员软件下载!

下载地址:


游客,如果您要查看本帖隐藏内容请回复






上一篇:戴安娜:音乐剧 [简繁中字] (2021) 4K高清版下载
下一篇:生死之交:马尔科姆·X与拳王阿里 [简繁] (2021) 4K高清版下载
回复

使用道具 举报

您需要登录后才可以回帖 登录 | 立即注册

本版积分规则

精彩图文
Archiver|手机版|TAG|Sitemap|新帖|专题|联系我们:邮箱: 4kjia.com@gmail.com   

4k家园   ©2019