[4K电影] 生死之交:马尔科姆·X与拳王阿里 [简繁] (2021) 4K高清版下载

[复制链接]

主题

帖子

0

积分

超级版主

Rank: 8Rank: 8

积分
0
 楼主| 发表于 2022-11-29 21:22:19 | 显示全部楼层 |阅读模式
生死之交:马尔科姆·X与拳王阿里.png

◎标  题 生死之交:马尔科姆·X与拳王阿里
◎译  名 结拜兄弟:拳王阿里与马尔科姆·X / 生死之交:麦尔坎·X与拳王阿里(台) / 八拜之交:民运领袖与拳王(港) / Blutsbrüder - Malcolm X und Muhammad Ali
◎片  名 Blood Brothers: Malcolm X & Muhammad Ali
◎年  代 2021
◎产  地 美国
◎类  别 纪录片 / 传记 / 历史 / 运动
◎语  言 英语
◎上映日期 2021-09-09(美国)
◎IMDb评分 6.9/10 from 1017 users 更新 : 2022-11-26
◎IMDb链接 https://www.imdb.com/title/tt15095938/
◎豆瓣评分 7.0/10 from 91 users 更新 : 2022-11-29
◎豆瓣链接 https://movie.douban.com/subject/35568831/
◎片  长 95分钟
◎编  剧 约翰·R·史密斯 John R. Smith
◎演  员 穆罕默德·阿里 Muhammad Ali
       马尔科姆·X Malcolm X


◎简  介


  在关键的三年里,拳王阿里与马尔科姆·X 结下了兄弟情谊,这不仅改变了两人,也改变了世界。《结拜兄弟:拳王阿里与马尔科姆·X》讲述了 20 世纪两位标志性人物从结缘到最终决裂的往事。很少有人能理解两人之间的这份情谊。在这部由制片人肯尼亚·巴里斯打造的全新长篇纪录片中,导演马库斯·A·克拉克提供了一个新鲜视角,通过知情人士的采访和未公开镜头来描绘这种复杂的友谊,带领观众深入了解这两位并驾齐驱的传奇人物:他们一位是魅力四射、为人直率的奥运冠军,举国都为之倾倒;一位从前科犯变为知识分子革命家,并勇于谴责压迫。通过采访与他们最亲近的人(马尔科姆·X 的女儿伊利亚莎·沙巴兹、阿里的兄弟拉曼和女儿玛丽尤姆和哈娜)以及康乃尔·韦斯特和阿尔·夏普顿等文化名人,这部电影讲述了他们的相遇、结缘以及最终因“伊斯兰民族”领导层的不和而闹翻的过程。该电影改编自兰迪·罗伯茨和约翰...

Video
ID : 1
Format : HEVC
Format/Info : High Efficiency Video Coding
Format profile : Main 10@L5@Main
Codec ID : V_MPEGH/ISO/HEVC
Duration : 1 h 36 min
Bit rate : 16.6 Mb/s
Width : 3 840 pixels
Height : 2 160 pixels
Display aspect ratio : 16:9
Frame rate mode : Constant
Frame rate : 23.976 (24000/1001) FPS
Color space : YUV
Chroma subsampling : 4:2:0
Bit depth : 10 bits
Bits/(Pixel*Frame) : 0.083
Stream size : 11.2 GiB (96%)
Language : English
Default : Yes
Forced : No
Color range : Limited
Color primaries : BT.709
Transfer characteristics : BT.709
Matrix coefficients : BT.709

Audio
ID : 2
Format : E-AC-3 JOC
Format/Info : Enhanced AC-3 with Joint Object Coding
Commercial name : Dolby Digital Plus with Dolby Atmos
Codec ID : A_EAC3
Duration : 1 h 36 min
Bit rate mode : Constant
Bit rate : 768 kb/s
Channel(s) : 6 channels
Channel layout : L R C LFE Ls Rs
Sampling rate : 48.0 kHz
Frame rate : 31.250 FPS (1536 SPF)
Compression mode : Lossy
Stream size : 530 MiB (4%)
Language : English
Service kind : Complete Main
Default : Yes
Forced : No
Complexity index : 16
Number of dynamic objects : 15
Bed channel count : 1 channel
Bed channel configuration : LFE

Text #1
ID : 3
Format : UTF-8
Codec ID : S_TEXT/UTF8
Codec ID/Info : UTF-8 Plain Text
Duration : 1 h 26 min
Bit rate : 4 b/s
Frame rate : 0.016 FPS
Count of elements : 82
Stream size : 2.98 KiB (0%)
Title : Forced
Language : English
Default : Yes
Forced : Yes

Text #2
ID : 4
Format : UTF-8
Codec ID : S_TEXT/UTF8
Codec ID/Info : UTF-8 Plain Text
Duration : 1 h 32 min
Bit rate : 90 b/s
Frame rate : 0.265 FPS
Count of elements : 1465
Stream size : 60.9 KiB (0%)
Language : English
Default : No
Forced : No

Text #3
ID : 5
Format : UTF-8
Codec ID : S_TEXT/UTF8
Codec ID/Info : UTF-8 Plain Text
Duration : 1 h 32 min
Bit rate : 98 b/s
Frame rate : 0.281 FPS
Count of elements : 1563
Stream size : 67.0 KiB (0%)
Title : SDH
Language : English
Default : No
Forced : No

Text #4
ID : 6
Format : UTF-8
Codec ID : S_TEXT/UTF8
Codec ID/Info : UTF-8 Plain Text
Duration : 1 h 34 min
Bit rate : 138 b/s
Frame rate : 0.272 FPS
Count of elements : 1549
Stream size : 96.4 KiB (0%)
Language : Arabic
Default : No
Forced : No

Text #5
ID : 7
Format : UTF-8
Codec ID : S_TEXT/UTF8
Codec ID/Info : UTF-8 Plain Text
Duration : 1 h 34 min
Bit rate : 80 b/s
Frame rate : 0.261 FPS
Count of elements : 1484
Stream size : 55.9 KiB (0%)
Language : Czech
Default : No
Forced : No

Text #6
ID : 8
Format : UTF-8
Codec ID : S_TEXT/UTF8
Codec ID/Info : UTF-8 Plain Text
Duration : 1 h 34 min
Bit rate : 84 b/s
Frame rate : 0.227 FPS
Count of elements : 1293
Stream size : 58.4 KiB (0%)
Language : Danish
Default : No
Forced : No

Text #7
ID : 9
Format : UTF-8
Codec ID : S_TEXT/UTF8
Codec ID/Info : UTF-8 Plain Text
Duration : 1 h 34 min
Bit rate : 82 b/s
Frame rate : 0.236 FPS
Count of elements : 1343
Stream size : 57.5 KiB (0%)
Language : German
Default : No
Forced : No

Text #8
ID : 10
Format : UTF-8
Codec ID : S_TEXT/UTF8
Codec ID/Info : UTF-8 Plain Text
Duration : 1 h 34 min
Bit rate : 145 b/s
Frame rate : 0.254 FPS
Count of elements : 1444
Stream size : 101 KiB (0%)
Language : Greek
Default : No
Forced : No

Text #9
ID : 11
Format : UTF-8
Codec ID : S_TEXT/UTF8
Codec ID/Info : UTF-8 Plain Text
Duration : 1 h 34 min
Bit rate : 85 b/s
Frame rate : 0.267 FPS
Count of elements : 1520
Stream size : 59.3 KiB (0%)
Title : Latin American
Language : Spanish
Default : No
Forced : No

Text #10
ID : 12
Format : UTF-8
Codec ID : S_TEXT/UTF8
Codec ID/Info : UTF-8 Plain Text
Duration : 1 h 34 min
Bit rate : 84 b/s
Frame rate : 0.272 FPS
Count of elements : 1551
Stream size : 58.6 KiB (0%)
Language : Spanish
Default : No
Forced : No

Text #11
ID : 13
Format : UTF-8
Codec ID : S_TEXT/UTF8
Codec ID/Info : UTF-8 Plain Text
Duration : 1 h 34 min
Bit rate : 83 b/s
Frame rate : 0.247 FPS
Count of elements : 1409
Stream size : 57.9 KiB (0%)
Language : Finnish
Default : No
Forced : No

Text #12
ID : 14
Format : UTF-8
Codec ID : S_TEXT/UTF8
Codec ID/Info : UTF-8 Plain Text
Duration : 1 h 34 min
Bit rate : 87 b/s
Frame rate : 0.258 FPS
Count of elements : 1472
Stream size : 60.9 KiB (0%)
Language : French
Default : No
Forced : No

Text #13
ID : 15
Format : UTF-8
Codec ID : S_TEXT/UTF8
Codec ID/Info : UTF-8 Plain Text
Duration : 1 h 34 min
Bit rate : 136 b/s
Frame rate : 0.256 FPS
Count of elements : 1459
Stream size : 94.8 KiB (0%)
Language : Hebrew
Default : No
Forced : No

Text #14
ID : 16
Format : UTF-8
Codec ID : S_TEXT/UTF8
Codec ID/Info : UTF-8 Plain Text
Duration : 1 h 34 min
Bit rate : 78 b/s
Frame rate : 0.256 FPS
Count of elements : 1458
Stream size : 54.4 KiB (0%)
Language : Croatian
Default : No
Forced : No

Text #15
ID : 17
Format : UTF-8
Codec ID : S_TEXT/UTF8
Codec ID/Info : UTF-8 Plain Text
Duration : 1 h 34 min
Bit rate : 85 b/s
Frame rate : 0.250 FPS
Count of elements : 1426
Stream size : 59.6 KiB (0%)
Language : Hungarian
Default : No
Forced : No

Text #16
ID : 18
Format : UTF-8
Codec ID : S_TEXT/UTF8
Codec ID/Info : UTF-8 Plain Text
Duration : 1 h 34 min
Bit rate : 84 b/s
Frame rate : 0.267 FPS
Count of elements : 1520
Stream size : 58.9 KiB (0%)
Language : Indonesian
Default : No
Forced : No

Text #17
ID : 19
Format : UTF-8
Codec ID : S_TEXT/UTF8
Codec ID/Info : UTF-8 Plain Text
Duration : 1 h 34 min
Bit rate : 84 b/s
Frame rate : 0.238 FPS
Count of elements : 1354
Stream size : 58.5 KiB (0%)
Language : Italian
Default : No
Forced : No

Text #18
ID : 20
Format : UTF-8
Codec ID : S_TEXT/UTF8
Codec ID/Info : UTF-8 Plain Text
Duration : 1 h 34 min
Bit rate : 84 b/s
Frame rate : 0.284 FPS
Count of elements : 1619
Stream size : 58.8 KiB (0%)
Language : Japanese
Default : No
Forced : No

Text #19
ID : 21
Format : UTF-8
Codec ID : S_TEXT/UTF8
Codec ID/Info : UTF-8 Plain Text
Duration : 1 h 34 min
Bit rate : 102 b/s
Frame rate : 0.273 FPS
Count of elements : 1552
Stream size : 70.8 KiB (0%)
Language : Korean
Default : No
Forced : No

Text #20
ID : 22
Format : UTF-8
Codec ID : S_TEXT/UTF8
Codec ID/Info : UTF-8 Plain Text
Duration : 1 h 34 min
Bit rate : 82 b/s
Frame rate : 0.247 FPS
Count of elements : 1408
Stream size : 57.6 KiB (0%)
Language : Malay
Default : No
Forced : No

Text #21
ID : 23
Format : UTF-8
Codec ID : S_TEXT/UTF8
Codec ID/Info : UTF-8 Plain Text
Duration : 1 h 34 min
Bit rate : 82 b/s
Frame rate : 0.233 FPS
Count of elements : 1325
Stream size : 57.0 KiB (0%)
Language : Norwegian Bokmal
Default : No
Forced : No

Text #22
ID : 24
Format : UTF-8
Codec ID : S_TEXT/UTF8
Codec ID/Info : UTF-8 Plain Text
Duration : 1 h 34 min
Bit rate : 85 b/s
Frame rate : 0.252 FPS
Count of elements : 1435
Stream size : 59.8 KiB (0%)
Language : Dutch
Default : No
Forced : No

Text #23
ID : 25
Format : UTF-8
Codec ID : S_TEXT/UTF8
Codec ID/Info : UTF-8 Plain Text
Duration : 1 h 34 min
Bit rate : 81 b/s
Frame rate : 0.247 FPS
Count of elements : 1407
Stream size : 56.5 KiB (0%)
Language : Polish
Default : No
Forced : No

Text #24
ID : 26
Format : UTF-8
Codec ID : S_TEXT/UTF8
Codec ID/Info : UTF-8 Plain Text
Duration : 1 h 34 min
Bit rate : 85 b/s
Frame rate : 0.253 FPS
Count of elements : 1442
Stream size : 59.4 KiB (0%)
Title : Brazilian
Language : Portuguese
Default : No
Forced : No

Text #25
ID : 27
Format : UTF-8
Codec ID : S_TEXT/UTF8
Codec ID/Info : UTF-8 Plain Text
Duration : 1 h 34 min
Bit rate : 86 b/s
Frame rate : 0.266 FPS
Count of elements : 1517
Stream size : 60.4 KiB (0%)
Language : Portuguese
Default : No
Forced : No

Text #26
ID : 28
Format : UTF-8
Codec ID : S_TEXT/UTF8
Codec ID/Info : UTF-8 Plain Text
Duration : 1 h 32 min
Bit rate : 91 b/s
Frame rate : 0.245 FPS
Count of elements : 1353
Stream size : 61.7 KiB (0%)
Language : Romanian
Default : No
Forced : No

Text #27
ID : 29
Format : UTF-8
Codec ID : S_TEXT/UTF8
Codec ID/Info : UTF-8 Plain Text
Duration : 1 h 34 min
Bit rate : 139 b/s
Frame rate : 0.265 FPS
Count of elements : 1512
Stream size : 97.2 KiB (0%)
Language : Russian
Default : No
Forced : No

Text #28
ID : 30
Format : UTF-8
Codec ID : S_TEXT/UTF8
Codec ID/Info : UTF-8 Plain Text
Duration : 1 h 34 min
Bit rate : 85 b/s
Frame rate : 0.275 FPS
Count of elements : 1567
Stream size : 59.2 KiB (0%)
Language : Swedish
Default : No
Forced : No

Text #29
ID : 31
Format : UTF-8
Codec ID : S_TEXT/UTF8
Codec ID/Info : UTF-8 Plain Text
Duration : 1 h 34 min
Bit rate : 218 b/s
Frame rate : 0.275 FPS
Count of elements : 1568
Stream size : 152 KiB (0%)
Language : Thai
Default : No
Forced : No

Text #30
ID : 32
Format : UTF-8
Codec ID : S_TEXT/UTF8
Codec ID/Info : UTF-8 Plain Text
Duration : 1 h 34 min
Bit rate : 79 b/s
Frame rate : 0.264 FPS
Count of elements : 1502
Stream size : 55.4 KiB (0%)
Language : Turkish
Default : No
Forced : No

Text #31
ID : 33
Format : UTF-8
Codec ID : S_TEXT/UTF8
Codec ID/Info : UTF-8 Plain Text
Duration : 1 h 32 min
Bit rate : 148 b/s
Frame rate : 0.276 FPS
Count of elements : 1527
Stream size : 100 KiB (0%)
Language : Ukrainian
Default : No
Forced : No

Text #32
ID : 34
Format : UTF-8
Codec ID : S_TEXT/UTF8
Codec ID/Info : UTF-8 Plain Text
Duration : 1 h 34 min
Bit rate : 114 b/s
Frame rate : 0.252 FPS
Count of elements : 1437
Stream size : 79.8 KiB (0%)
Language : Vietnamese
Default : No
Forced : No

Text #33
ID : 35
Format : UTF-8
Codec ID : S_TEXT/UTF8
Codec ID/Info : UTF-8 Plain Text
Duration : 1 h 34 min
Bit rate : 79 b/s
Frame rate : 0.271 FPS
Count of elements : 1543
Stream size : 55.0 KiB (0%)
Title : 简体中字
Language : Chinese
Default : No
Forced : No

Text #34
ID : 36
Format : UTF-8
Codec ID : S_TEXT/UTF8
Codec ID/Info : UTF-8 Plain Text
Duration : 1 h 34 min
Bit rate : 84 b/s
Frame rate : 0.282 FPS
Count of elements : 1607
Stream size : 58.5 KiB (0%)
Title : 繁体中字
Language : Chinese
Default : No
Forced : No


Menu
01:32:50.000 : en:End Credits


推荐使用qBittorrent、uTorrent、BitComet等下载软件,有条件的推荐115或会员软件下载!

下载地址:


游客,如果您要查看本帖隐藏内容请回复

游客,如果您要查看本帖隐藏内容请回复

游客,如果您要查看本帖隐藏内容请回复

游客,如果您要查看本帖隐藏内容请回复






上一篇:好莱坞俗套大吐槽 [简繁中字] (2021) 4K高清版下载
下一篇:父女之战:解放布兰妮 [简繁中字] (2021) 4K高清版下载
回复

使用道具 举报

您需要登录后才可以回帖 登录 | 立即注册

本版积分规则

精彩图文
Archiver|手机版|TAG|Sitemap|新帖|专题|联系我们:邮箱: 4kjia.com@gmail.com   

4k家园   ©2019