[4K电影] 马里布救生队 [简繁中字] (2019) 4K高清版本下载

[复制链接]

主题

帖子

0

积分

超级版主

Rank: 8Rank: 8

积分
0
 楼主| 发表于 2022-12-3 22:10:05 | 显示全部楼层 |阅读模式
本帖最后由 最爱4K哟 于 2022-12-4 00:12 编辑

QQ图片20221204000353_副本.png

◎标  题 马里布救生队
◎译  名 马里布救生队:电影版 / 马里布救生营(港 / 台)
◎片  名 Malibu Rescue: The Movie
◎年  代 2019
◎产  地 美国
◎类  别 喜剧
◎语  言 英语
◎上映日期 2019-05-13(美国)
◎IMDb评分 5.0/10 from 1336 users 更新 : 2022-12-03
◎IMDb链接 https://www.imdb.com/title/tt9228950/
◎豆瓣评分 5.3/10 from 128 users 更新 : 2022-12-03
◎豆瓣链接 https://movie.douban.com/subject/33416030/
◎片  长 69分钟
◎导  演 萨维奇·史蒂夫·霍兰德 Savage Steve Holland
◎编  剧 萨维奇·史蒂夫·霍兰德 Savage Steve Holland / 杰德·埃利诺夫 Jed Elinoff / Scott Alan Thomas Scott Alan Thomas
◎演  员 里卡多·乌尔塔多 Ricardo Hurtado
       布雷安娜·伊德 Breanna Yde
       杰姬·R·雅各布森 Jackie R. Jacobson
       阿比·唐纳利 Abby Donnelly
       阿尔科亚·布伦森 Alkoya Brunson
       柯蒂斯·阿姆斯壮 Curtis Armstrong
       伊恩·齐林 Ian Ziering
       杰瑞米·霍华德 Jeremy Howard
       杰夫·米查姆 Jeff Meacham
       埃拉·格罗斯 Ella Gross
       奥斯汀·法瑞伯格 Austin Fryberger
       罗德尼·J·霍布斯 Rodney J. Hobbs
       特雷莎·加里 Treisa Gary
       萨维奇·史蒂夫·霍兰德 Savage Steve Holland
       劳伦·玛丽·金 Lauren Mary Kim


◎简  介


  一群形形色色志向远大的初级救生员,以可爱聪明、来自圣费尔南多谷的家伙为首。他们与自命不凡的马布里小子们竞争,称霸马里布海滩救生员塔,从而获得吹牛资本。不过我们非专业小队意识到,赢得属于自己的塔仅仅是个开始。现在,这些圣费尔南多谷的孩子们已经完成了初级救生员项目,可以成为正式的马布里初级救生员了!反正他们是这样想的。但对手马里布小队也不会不战而败。
《马里布救生队》由里卡多·乌尔塔多(《摇滚校园》)、布赖安·伊德(《摇滚校园》《The Haunted Hathaways》)、阿尔科亚·布伦森(《迈耶斯家的圣诞节》《一个国家的诞生》)、阿比·唐纳利(《Just Add Magic》)和杰姬·R·雅各布森(《马的故事》)主演。

Video
ID : 1
Format : HEVC
Format/Info : High Efficiency Video Coding
Format profile : Main 10@L5@Main
HDR format : Dolby Vision, Version 1.0, dvhe.08.06, BL+RPU, HDR10 compatible / SMPTE ST 2086, HDR10 compatible
Codec ID : V_MPEGH/ISO/HEVC
Duration : 1 h 8 min
Bit rate : 15.7 Mb/s
Width : 3 840 pixels
Height : 2 160 pixels
Display aspect ratio : 16:9
Frame rate mode : Constant
Frame rate : 23.976 (24000/1001) FPS
Color space : YUV
Chroma subsampling : 4:2:0 (Type 2)
Bit depth : 10 bits
Bits/(Pixel*Frame) : 0.079
Stream size : 7.50 GiB (96%)
Default : Yes
Forced : No
Color range : Limited
Color primaries : BT.2020
Transfer characteristics : PQ
Matrix coefficients : BT.2020 non-constant
Mastering display color primaries : Display P3
Mastering display luminance : min: 0.0001 cd/m2, max: 1000 cd/m2
Maximum Content Light Level : 1293 cd/m2
Maximum Frame-Average Light Level : 515 cd/m2

Audio
ID : 2
Format : E-AC-3
Format/Info : Enhanced AC-3
Commercial name : Dolby Digital Plus
Codec ID : A_EAC3
Duration : 1 h 8 min
Bit rate mode : Constant
Bit rate : 640 kb/s
Channel(s) : 6 channels
Channel layout : L R C LFE Ls Rs
Sampling rate : 48.0 kHz
Frame rate : 31.250 FPS (1536 SPF)
Compression mode : Lossy
Stream size : 314 MiB (4%)
Language : English
Service kind : Complete Main
Default : Yes
Forced : No

Text #1
ID : 3
Format : UTF-8
Codec ID : S_TEXT/UTF8
Codec ID/Info : UTF-8 Plain Text
Duration : 1 h 4 min
Bit rate : 76 b/s
Frame rate : 0.276 FPS
Count of elements : 1073
Stream size : 36.5 KiB (0%)
Language : English
Default : No
Forced : No

Text #2
ID : 4
Format : UTF-8
Codec ID : S_TEXT/UTF8
Codec ID/Info : UTF-8 Plain Text
Duration : 1 h 5 min
Bit rate : 88 b/s
Frame rate : 0.319 FPS
Count of elements : 1248
Stream size : 42.1 KiB (0%)
Title : SDH
Language : English
Default : No
Forced : No

Text #3
ID : 5
Format : UTF-8
Codec ID : S_TEXT/UTF8
Codec ID/Info : UTF-8 Plain Text
Duration : 1 h 6 min
Bit rate : 126 b/s
Frame rate : 0.286 FPS
Count of elements : 1132
Stream size : 61.0 KiB (0%)
Language : Arabic
Default : No
Forced : No

Text #4
ID : 6
Format : UTF-8
Codec ID : S_TEXT/UTF8
Codec ID/Info : UTF-8 Plain Text
Duration : 1 h 6 min
Bit rate : 77 b/s
Frame rate : 0.290 FPS
Count of elements : 1148
Stream size : 37.5 KiB (0%)
Title : 简体中字
Language : Chinese

Default : No
Forced : No

Text #5
ID : 7
Format : UTF-8
Codec ID : S_TEXT/UTF8
Codec ID/Info : UTF-8 Plain Text
Duration : 1 h 6 min
Bit rate : 71 b/s
Frame rate : 0.294 FPS
Count of elements : 1163
Stream size : 34.7 KiB (0%)
Title : 繁体中字
Language : Chinese

Default : No
Forced : No

Text #6
ID : 8
Format : UTF-8
Codec ID : S_TEXT/UTF8
Codec ID/Info : UTF-8 Plain Text
Duration : 1 h 6 min
Bit rate : 65 b/s
Frame rate : 0.281 FPS
Count of elements : 1111
Stream size : 31.8 KiB (0%)
Language : Czech
Default : No
Forced : No

Text #7
ID : 9
Format : UTF-8
Codec ID : S_TEXT/UTF8
Codec ID/Info : UTF-8 Plain Text
Duration : 1 h 6 min
Bit rate : 72 b/s
Frame rate : 0.273 FPS
Count of elements : 1083
Stream size : 35.3 KiB (0%)
Language : Danish
Default : No
Forced : No

Text #8
ID : 10
Format : UTF-8
Codec ID : S_TEXT/UTF8
Codec ID/Info : UTF-8 Plain Text
Duration : 1 h 6 min
Bit rate : 64 b/s
Frame rate : 0.260 FPS
Count of elements : 1028
Stream size : 31.4 KiB (0%)
Language : Dutch
Default : No
Forced : No

Text #9
ID : 11
Format : UTF-8
Codec ID : S_TEXT/UTF8
Codec ID/Info : UTF-8 Plain Text
Duration : 1 h 6 min
Bit rate : 55 b/s
Frame rate : 0.185 FPS
Count of elements : 732
Stream size : 27.1 KiB (0%)
Language : Finnish
Default : No
Forced : No

Text #10
ID : 12
Format : UTF-8
Codec ID : S_TEXT/UTF8
Codec ID/Info : UTF-8 Plain Text
Duration : 1 h 6 min
Bit rate : 56 b/s
Frame rate : 0.276 FPS
Count of elements : 1093
Stream size : 27.4 KiB (0%)
Language : French
Default : No
Forced : No

Text #11
ID : 13
Format : UTF-8
Codec ID : S_TEXT/UTF8
Codec ID/Info : UTF-8 Plain Text
Duration : 1 h 6 min
Bit rate : 60 b/s
Frame rate : 0.235 FPS
Count of elements : 929
Stream size : 29.4 KiB (0%)
Language : German
Default : No
Forced : No

Text #12
ID : 14
Format : UTF-8
Codec ID : S_TEXT/UTF8
Codec ID/Info : UTF-8 Plain Text
Duration : 1 h 6 min
Bit rate : 90 b/s
Frame rate : 0.284 FPS
Count of elements : 1124
Stream size : 43.6 KiB (0%)
Language : Greek
Default : No
Forced : No

Text #13
ID : 15
Format : UTF-8
Codec ID : S_TEXT/UTF8
Codec ID/Info : UTF-8 Plain Text
Duration : 1 h 6 min
Bit rate : 112 b/s
Frame rate : 0.290 FPS
Count of elements : 1149
Stream size : 54.2 KiB (0%)
Language : Hebrew
Default : No
Forced : No

Text #14
ID : 16
Format : UTF-8
Codec ID : S_TEXT/UTF8
Codec ID/Info : UTF-8 Plain Text
Duration : 1 h 6 min
Bit rate : 65 b/s
Frame rate : 0.285 FPS
Count of elements : 1128
Stream size : 31.7 KiB (0%)
Language : Hungarian
Default : No
Forced : No

Text #15
ID : 17
Format : UTF-8
Codec ID : S_TEXT/UTF8
Codec ID/Info : UTF-8 Plain Text
Duration : 1 h 6 min
Bit rate : 69 b/s
Frame rate : 0.273 FPS
Count of elements : 1082
Stream size : 33.7 KiB (0%)
Language : Indonesian
Default : No
Forced : No

Text #16
ID : 18
Format : UTF-8
Codec ID : S_TEXT/UTF8
Codec ID/Info : UTF-8 Plain Text
Duration : 1 h 6 min
Bit rate : 70 b/s
Frame rate : 0.267 FPS
Count of elements : 1059
Stream size : 34.0 KiB (0%)
Language : Italian
Default : No
Forced : No

Text #17
ID : 19
Format : UTF-8
Codec ID : S_TEXT/UTF8
Codec ID/Info : UTF-8 Plain Text
Duration : 1 h 6 min
Bit rate : 71 b/s
Frame rate : 0.309 FPS
Count of elements : 1222
Stream size : 34.6 KiB (0%)
Language : Japanese
Default : No
Forced : No

Text #18
ID : 20
Format : UTF-8
Codec ID : S_TEXT/UTF8
Codec ID/Info : UTF-8 Plain Text
Duration : 1 h 6 min
Bit rate : 92 b/s
Frame rate : 0.292 FPS
Count of elements : 1158
Stream size : 44.6 KiB (0%)
Language : Korean
Default : No
Forced : No

Text #19
ID : 21
Format : UTF-8
Codec ID : S_TEXT/UTF8
Codec ID/Info : UTF-8 Plain Text
Duration : 1 h 6 min
Bit rate : 71 b/s
Frame rate : 0.264 FPS
Count of elements : 1044
Stream size : 34.4 KiB (0%)
Language : Norwegian Bokmal
Default : No
Forced : No

Text #20
ID : 22
Format : UTF-8
Codec ID : S_TEXT/UTF8
Codec ID/Info : UTF-8 Plain Text
Duration : 1 h 6 min
Bit rate : 67 b/s
Frame rate : 0.280 FPS
Count of elements : 1109
Stream size : 32.6 KiB (0%)
Language : Polish
Default : No
Forced : No

Text #21
ID : 23
Format : UTF-8
Codec ID : S_TEXT/UTF8
Codec ID/Info : UTF-8 Plain Text
Duration : 1 h 6 min
Bit rate : 55 b/s
Frame rate : 0.277 FPS
Count of elements : 1098
Stream size : 27.0 KiB (0%)
Title : Brazilian
Language : Portuguese
Default : No
Forced : No

Text #22
ID : 24
Format : UTF-8
Codec ID : S_TEXT/UTF8
Codec ID/Info : UTF-8 Plain Text
Duration : 1 h 6 min
Bit rate : 62 b/s
Frame rate : 0.284 FPS
Count of elements : 1126
Stream size : 30.2 KiB (0%)
Title : Iberian
Language : Portuguese
Default : No
Forced : No

Text #23
ID : 25
Format : UTF-8
Codec ID : S_TEXT/UTF8
Codec ID/Info : UTF-8 Plain Text
Duration : 1 h 6 min
Bit rate : 67 b/s
Frame rate : 0.288 FPS
Count of elements : 1141
Stream size : 32.8 KiB (0%)
Language : Romanian
Default : No
Forced : No

Text #24
ID : 26
Format : UTF-8
Codec ID : S_TEXT/UTF8
Codec ID/Info : UTF-8 Plain Text
Duration : 1 h 6 min
Bit rate : 101 b/s
Frame rate : 0.278 FPS
Count of elements : 1103
Stream size : 48.9 KiB (0%)
Language : Russian
Default : No
Forced : No

Text #25
ID : 27
Format : UTF-8
Codec ID : S_TEXT/UTF8
Codec ID/Info : UTF-8 Plain Text
Duration : 1 h 6 min
Bit rate : 60 b/s
Frame rate : 0.289 FPS
Count of elements : 1146
Stream size : 29.0 KiB (0%)
Title : Castilian
Language : Spanish
Default : No
Forced : No

Text #26
ID : 28
Format : UTF-8
Codec ID : S_TEXT/UTF8
Codec ID/Info : UTF-8 Plain Text
Duration : 1 h 6 min
Bit rate : 59 b/s
Frame rate : 0.264 FPS
Count of elements : 1045
Stream size : 28.6 KiB (0%)
Title : Latin American
Language : Spanish
Default : No
Forced : No

Text #27
ID : 29
Format : UTF-8
Codec ID : S_TEXT/UTF8
Codec ID/Info : UTF-8 Plain Text
Duration : 1 h 6 min
Bit rate : 57 b/s
Frame rate : 0.218 FPS
Count of elements : 862
Stream size : 27.7 KiB (0%)
Language : Swedish
Default : No
Forced : No

Text #28
ID : 30
Format : UTF-8
Codec ID : S_TEXT/UTF8
Codec ID/Info : UTF-8 Plain Text
Duration : 1 h 6 min
Bit rate : 187 b/s
Frame rate : 0.290 FPS
Count of elements : 1149
Stream size : 90.6 KiB (0%)
Language : Thai
Default : No
Forced : No

Text #29
ID : 31
Format : UTF-8
Codec ID : S_TEXT/UTF8
Codec ID/Info : UTF-8 Plain Text
Duration : 1 h 6 min
Bit rate : 70 b/s
Frame rate : 0.278 FPS
Count of elements : 1101
Stream size : 33.9 KiB (0%)
Language : Turkish
Default : No
Forced : No

Text #30
ID : 32
Format : UTF-8
Codec ID : S_TEXT/UTF8
Codec ID/Info : UTF-8 Plain Text
Duration : 1 h 6 min
Bit rate : 95 b/s
Frame rate : 0.290 FPS
Count of elements : 1149
Stream size : 46.3 KiB (0%)
Language : Vietnamese
Default : No
Forced : No

推荐使用qBittorrent、uTorrent、BitComet等下载软件,有条件的推荐115或会员软件下载!

下载地址


游客,如果您要查看本帖隐藏内容请回复





上一篇:天堂里的圣诞节 / Christmas in Paradise (2022) 4K高清版本下载
下一篇:皮威的长假 [简繁中字]/Pee-wee's Big Holiday(2016) 4K高清版本下载
回复

使用道具 举报

您需要登录后才可以回帖 登录 | 立即注册

本版积分规则

精彩图文
Archiver|手机版|TAG|Sitemap|新帖|专题|联系我们:邮箱: 4kjia.com@gmail.com   

4k家园   ©2019