[2020韩国MV]卡丁车-宝贝(编舞视频)4k[2160P/MP4/313MB]

[复制链接]

1986

主题

2242

帖子

1万

积分

超级版主

Rank: 8Rank: 8

积分
17972
 楼主| 发表于 2020-4-5 11:50:38 | 显示全部楼层 |阅读模式
[2020韩国MV]卡丁车-宝贝(编舞视频)4k_20200329194907.JPG [2020韩国MV]卡丁车-宝贝(编舞视频)4k_20200329194916.JPG [2020韩国MV]卡丁车-宝贝(编舞视频)4k_20200329194928.JPG [2020韩国MV]卡丁车-宝贝(编舞视频)4k_20200329194946.JPG

General
Complete name                  : [2020韩国MV]卡丁车-宝贝(编舞视频)4k.mp4
Format                         : MPEG-4
Format profile                 : Base Media
Codec ID                       : isom (isom/iso2/avc1/mp41)
File size                      : 314 MiB
Duration                       : 3 min 14 s
Overall bit rate               : 13.6 Mb/s
Writing application            : Lavf58.12.100
exvr                           : EX1.6.0(C1.0.9)

Video
ID                             : 1
Format                         : AVC
Format/Info                    : Advanced Video Codec
Format profile                 : High@L5.1
Format settings                : CABAC / 3 Ref Frames
Format settings, CABAC         : Yes
Format settings, Reference fra : 3 frames
Codec ID                       : avc1
Codec ID/Info                  : Advanced Video Coding
Duration                       : 3 min 14 s
Bit rate                       : 13.4 Mb/s
Width                          : 3 840 pixels
Height                         : 2 160 pixels
Display aspect ratio           : 16:9
Frame rate mode                : Constant
Frame rate                     : 23.976 (23976/1000) FPS
Color space                    : YUV
Chroma subsampling             : 4:2:0
Bit depth                      : 8 bits
Scan type                      : Progressive
Bits/(Pixel*Frame)             : 0.067
Stream size                    : 309 MiB (99%)
Color range                    : Limited
Color primaries                : BT.709
Transfer characteristics       : BT.709
Matrix coefficients            : BT.709
Codec configuration box        : avcC

Audio
ID                             : 2
Format                         : AAC LC
Format/Info                    : Advanced Audio Codec Low Complexity
Codec ID                       : mp4a-40-2
Duration                       : 3 min 14 s
Bit rate mode                  : Constant
Bit rate                       : 192 kb/s
Channel(s)                     : 2 channels
Channel layout                 : L R
Sampling rate                  : 48.0 kHz
Frame rate                     : 46.875 FPS (1024 SPF)
Compression mode               : Lossy
Stream size                    : 4.45 MiB (1%)
Default                        : Yes
Alternate group                : 1



网盘下载失效不补:链接: https://pan.baidu.com/s/11AwScWI5m59W_lYnHgR7BA 提取码:
****此区域为收费内容****    需支付 30 金币后可查看立即购买



.

上一篇:[2020韩国MV]ITZY - ITZY - WANNABE(MIDZY Ver. FULL CAM) 4k[2160P/MP4/349MB]
下一篇:2019《追梦者的天空》特别迷你专辑7 60fps[2160P/MP4/632MB]
回复

使用道具 举报

46

主题

1304

帖子

3738

积分

4K家园VIP

Rank: 9Rank: 9Rank: 9

积分
3738
发表于 2020-4-5 11:50:41 | 显示全部楼层
垃圾
回复 支持 反对

使用道具 举报

0

主题

1421

帖子

8815

积分

金牌会员

Rank: 6Rank: 6

积分
8815
发表于 2020-4-6 06:55:21 | 显示全部楼层
谢谢分享!!
回复

使用道具 举报

0

主题

1324

帖子

3812

积分

4K家园VIP

Rank: 9Rank: 9Rank: 9

积分
3812
发表于 2020-4-6 09:05:25 | 显示全部楼层
支持,赞一个
回复 支持 反对

使用道具 举报

2

主题

1162

帖子

3344

积分

4K家园VIP

Rank: 9Rank: 9Rank: 9

积分
3344
发表于 2020-4-6 13:46:01 | 显示全部楼层
多谢楼主分享
回复 支持 反对

使用道具 举报

1

主题

1177

帖子

3379

积分

中级会员

Rank: 4

积分
3379
发表于 2020-4-7 22:46:28 | 显示全部楼层
支持支持再支持
回复 支持 反对

使用道具 举报

3

主题

1143

帖子

3447

积分

4K家园VIP

Rank: 9Rank: 9Rank: 9

积分
3447
发表于 2020-4-8 14:32:35 来自手机 | 显示全部楼层
秀起来~
回复 支持 反对

使用道具 举报

0

主题

2

帖子

11

积分

新手上路

Rank: 1

积分
11
发表于 2020-4-8 19:30:01 | 显示全部楼层
支持,赞一个起来~
回复 支持 反对

使用道具 举报

头像被屏蔽

0

主题

71

帖子

120

积分

禁止访问

积分
120
发表于 2020-4-18 20:59:22 | 显示全部楼层
提示: 作者被禁止或删除 内容自动屏蔽
签名被屏蔽
回复

使用道具 举报

头像被屏蔽

0

主题

71

帖子

120

积分

禁止访问

积分
120
发表于 2020-4-18 23:25:48 | 显示全部楼层
提示: 作者被禁止或删除 内容自动屏蔽
签名被屏蔽
回复

使用道具 举报

您需要登录后才可以回帖 登录 | 立即注册

本版积分规则

精彩图文
Archiver|手机版|TAG|Sitemap|新帖|专题|联系我们:邮箱: 4kjia.com@gmail.com   

4k家园   ©2019