[4K美女视频] 2019 智能设备秀淡谈的蓝-金达温[2160P/MP4/663MB]

[复制链接]

1995

主题

2251

帖子

1万

积分

超级版主

Rank: 8Rank: 8

积分
18080
 楼主| 发表于 2020-4-14 11:28:03 | 显示全部楼层 |阅读模式
2019智能设备秀淡谈的蓝-金达温_20200329200014.JPG 2019智能设备秀淡谈的蓝-金达温_20200329200020.JPG 2019智能设备秀淡谈的蓝-金达温_20200329200028.JPG 2019智能设备秀淡谈的蓝-金达温_20200329200038.JPG

General
Complete name                  : 2019智能设备秀淡谈的蓝-金达温.mp4
Format                         : MPEG-4
Format profile                 : Base Media
Codec ID                       : isom (isom/iso2/avc1/mp41)
File size                      : 665 MiB
Duration                       : 7 min 6 s
Overall bit rate               : 13.1 Mb/s
Writing application            : EX1.5.0(C1.0.9)

Video
ID                             : 1
Format                         : AVC
Format/Info                    : Advanced Video Codec
Format profile                 : High@L5.1
Format settings                : CABAC / 3 Ref Frames
Format settings, CABAC         : Yes
Format settings, Reference fra : 3 frames
Codec ID                       : avc1
Codec ID/Info                  : Advanced Video Coding
Duration                       : 7 min 6 s
Bit rate                       : 12.9 Mb/s
Width                          : 2 160 pixels
Height                         : 3 840 pixels
Display aspect ratio           : 0.563
Frame rate mode                : Constant
Frame rate                     : 29.970 (29970/1000) FPS
Color space                    : YUV
Chroma subsampling             : 4:2:0
Bit depth                      : 8 bits
Scan type                      : Progressive
Bits/(Pixel*Frame)             : 0.052
Stream size                    : 655 MiB (99%)
Color range                    : Limited
Color primaries                : BT.709
Transfer characteristics       : BT.709
Matrix coefficients            : BT.709
Codec configuration box        : avcC

Audio
ID                             : 2
Format                         : AAC LC
Format/Info                    : Advanced Audio Codec Low Complexity
Codec ID                       : mp4a-40-2
Duration                       : 7 min 6 s
Bit rate mode                  : Constant
Bit rate                       : 192 kb/s
Channel(s)                     : 2 channels
Channel layout                 : L R
Sampling rate                  : 48.0 kHz
Frame rate                     : 46.875 FPS (1024 SPF)
Compression mode               : Lossy
Stream size                    : 9.76 MiB (1%)
Default                        : Yes
Alternate group                : 1


网盘下载失效不补:链接: https://pan.baidu.com/s/1mBdr5tOLuVlq8QE4hymXug 提取码:
****此区域为收费内容****    需支付 15 金币后可查看立即购买


.

上一篇:2019韩国首尔车展Maxim girl-韩秀喜[2160P/MP4/291MB]
下一篇:ITZY- ICY(4320*2160P 24fps)测试用 请大家忽略本主题
回复

使用道具 举报

58

主题

1348

帖子

3878

积分

4K家园VIP

Rank: 9Rank: 9Rank: 9

积分
3878
发表于 2020-4-14 11:28:07 | 显示全部楼层
什么东西啊
回复 支持 反对

使用道具 举报

2

主题

1168

帖子

3477

积分

4K家园VIP

Rank: 9Rank: 9Rank: 9

积分
3477
发表于 2020-4-14 11:28:08 | 显示全部楼层
佩服佩服!
回复 支持 反对

使用道具 举报

1

主题

1113

帖子

3355

积分

4K家园VIP

Rank: 9Rank: 9Rank: 9

积分
3355
发表于 2020-4-14 11:28:08 | 显示全部楼层
不错 支持一个了
回复 支持 反对

使用道具 举报

1

主题

637

帖子

7292

积分

4K家园VIP

Rank: 9Rank: 9Rank: 9

积分
7292
QQ
发表于 2020-4-14 22:36:05 | 显示全部楼层
不错支持了!!
回复 支持 反对

使用道具 举报

2

主题

1125

帖子

3229

积分

4K家园VIP

Rank: 9Rank: 9Rank: 9

积分
3229
发表于 2020-4-14 22:39:07 | 显示全部楼层
LZ帖子不给力,勉强给回复下吧
回复 支持 反对

使用道具 举报

0

主题

1421

帖子

8815

积分

金牌会员

Rank: 6Rank: 6

积分
8815
发表于 2020-4-15 06:09:11 | 显示全部楼层
谢谢分享!!
回复

使用道具 举报

1

主题

1494

帖子

4090

积分

4K家园VIP

Rank: 9Rank: 9Rank: 9

积分
4090
发表于 2020-4-15 09:58:42 | 显示全部楼层
高手云集 果断围观
回复 支持 反对

使用道具 举报

0

主题

3

帖子

12

积分

新手上路

Rank: 1

积分
12
发表于 2020-4-21 14:12:24 | 显示全部楼层

不错支持了!!
回复 支持 反对

使用道具 举报

0

主题

8

帖子

36

积分

新手上路

Rank: 1

积分
36
发表于 2020-6-18 19:35:25 | 显示全部楼层

4K家园赞一个!
回复 支持 反对

使用道具 举报

您需要登录后才可以回帖 登录 | 立即注册

本版积分规则

精彩图文
Archiver|手机版|TAG|Sitemap|新帖|专题|联系我们:邮箱: 4kjia.com@gmail.com   

4k家园   ©2019