《霹雳男儿/雷声四起》4K高清下载/11.70GB

[复制链接]

635

主题

650

帖子

8615

积分

4K家园VIP

Rank: 9Rank: 9Rank: 9

积分
8615
 楼主| 发表于 2020-4-4 11:49:11 | 显示全部楼层 |阅读模式
124618a65dc09.png

◎译  名 霹雳男儿 / 雷声四起 / 雷霆壮志 / 雷鸣的日子
◎片  名 Days of Thunder
◎年  代 1990
◎产  地 美国
◎类  别 剧情 / 动作 / 爱情 / 运动
◎语  言 英语
◎上映日期 1990-06-27
◎IMDb评分 6.0/10 from 75161 users
◎IMDb链接 https://www.imdb.com/title/tt0099371
◎豆瓣评分 6.8/10 from 1760 users
◎豆瓣链接 https://movie.douban.com/subject/1292746/
◎片  长 107 分钟
◎导  演 Tony Scott
◎编  剧 Robert Towne
◎主  演 Tom Cruise
      Nicole Kidman
      Robert Duvall



◎简  介

  赛车版的《壮志凌云》
  杰克是一名职业赛车手,对胜利和赛车冠军充满了渴望,在走出失败的阴影之后,他在女友的鼓励及赛车设计高手哈里的帮助下,决定再次挑战对手联手向雷特那赛车冠军发起了冲击。经过惊险万分比赛,最后终于赢得了冠军!

◎获奖情况

  第63届奥斯卡金像奖(1991)
  最佳音响(提名) Donald O. Mitchell / 凯文·奥康奈尔 / 里克·克莱恩 / Charles M. Wilborn
Video
ID : 1
Format : HEVC
Format/Info : High Efficiency Video Coding
Format profile : Main@L5@High
Codec ID : V_MPEGH/ISO/HEVC
Duration : 1 h 47 min
Bit rate : 14.7 Mb/s
Width : 3 840 pixels
Height : 2 160 pixels
Display aspect ratio : 16:9
Frame rate mode : Constant
Frame rate : 23.976 (24000/1001/189150) FPS
Color space : YUV
Chroma subsampling : 4:2:0
Bit depth : 8 bits
Bits/(Pixel*Frame) : 0.074
Stream size : 11.0 GiB (95%)
Language : English
Default : Yes
Forced : No
Color range : Limited
Color primaries : BT.709
Transfer characteristics : BT.709
Matrix coefficients : BT.709
Statistics Tags Issue : no_variable_data 1970-01-01 00:00:00 / no_variable_data 2010-02-22 21:41:29
FromStats_BitRate : 15027998
FromStats_Duration : 01:47:16.812000000
FromStats_FrameCount : 154329
FromStats_StreamSize : 12091550301

Audio
ID : 2
Format : E-AC-3
Format/Info : Enhanced AC-3
Commercial name : Dolby Digital Plus
Codec ID : A_EAC3
Duration : 1 h 47 min
Bit rate mode : Constant
Bit rate : 448 kb/s
Channel(s) : 6 channels
Channel layout : L R C LFE Ls Rs
Sampling rate : 48.0 kHz
Frame rate : 31.250 FPS (1536 SPF)
Compression mode : Lossy
Stream size : 344 MiB (3%)
Language : English
Service kind : Complete Main
Default : Yes
Forced : No
Statistics Tags Issue : no_variable_data 1970-01-01 00:00:00 / no_variable_data 2010-02-22 21:41:29
FromStats_BitRate : 448000
FromStats_Duration : 01:47:16.832000000
FromStats_FrameCount : 201151
FromStats_StreamSize : 360462592

Text
ID : 3
Format : UTF-8
Codec ID : S_TEXT/UTF8
Codec ID/Info : UTF-8 Plain Text
Title : English (SDH)
Language : English
Default : No
Forced : No
Statistics Tags Issue : no_variable_data 1970-01-01 00:00:00 / no_variable_data 2010-02-22 21:41:29
FromStats_BitRate : 68
FromStats_Duration : 01:41:16.117000000
FromStats_FrameCount : 1448
FromStats_StreamSize : 52346

5446bc4c14007.png 086e1997aa834.png 1bb0591597e78.png



游客,如果您要查看本帖隐藏内容请回复



.




上一篇:《鬼驱人 / 凶灵入侵》4K高清下载/9.49GB
下一篇:《海豚礁/迪士尼乐园:海豚礁》4K高清下载/8.91GB
回复

使用道具 举报

46

主题

1226

帖子

3512

积分

4K家园VIP

Rank: 9Rank: 9Rank: 9

积分
3512
发表于 2020-4-4 11:49:24 | 显示全部楼层
支持一下楼主发表的内容
回复 支持 反对

使用道具 举报

48

主题

1299

帖子

3719

积分

4K家园VIP

Rank: 9Rank: 9Rank: 9

积分
3719
发表于 2020-4-4 11:49:24 | 显示全部楼层
回复 支持 反对

使用道具 举报

0

主题

1312

帖子

5486

积分

4K家园VIP

Rank: 9Rank: 9Rank: 9

积分
5486
发表于 2020-4-4 12:06:01 | 显示全部楼层
太好啦&萬分感謝版主的無私發佈分享%
回复 支持 反对

使用道具 举报

1

主题

1481

帖子

4051

积分

4K家园VIP

Rank: 9Rank: 9Rank: 9

积分
4051
发表于 2020-4-4 19:56:29 来自手机 | 显示全部楼层
多发些资源啊
回复 支持 反对

使用道具 举报

1

主题

1243

帖子

3581

积分

4K家园VIP

Rank: 9Rank: 9Rank: 9

积分
3581
发表于 2020-4-4 22:29:12 | 显示全部楼层
为了三千积分!
回复 支持 反对

使用道具 举报

0

主题

1421

帖子

8815

积分

金牌会员

Rank: 6Rank: 6

积分
8815
发表于 2020-4-5 06:30:22 | 显示全部楼层
谢谢分享!!
回复

使用道具 举报

2

主题

1159

帖子

3495

积分

4K家园VIP

Rank: 9Rank: 9Rank: 9

积分
3495
发表于 2020-4-7 13:21:00 来自手机 | 显示全部楼层
我了个去,顶了
回复 支持 反对

使用道具 举报

您需要登录后才可以回帖 登录 | 立即注册

本版积分规则

精彩图文
Archiver|手机版|TAG|Sitemap|新帖|专题|联系我们:邮箱: 4kjia.com@gmail.com   

4k家园   ©2019