《糖衣陷阱/律师事务所》4K高清下载/16.61GB

[复制链接]

631

主题

646

帖子

8560

积分

4K家园VIP

Rank: 9Rank: 9Rank: 9

积分
8560
 楼主| 发表于 2020-4-4 12:08:22 | 显示全部楼层 |阅读模式
421a240e8ce4b.png

◎译  名 糖衣陷阱 / 律师事务所 / 律师行 / 黑色豪门企业
◎片  名 The Firm
◎年  代 1993
◎产  地 美国
◎类  别 剧情 / 惊悚
◎语  言 英语
◎上映日期 1993-06-30
◎IMDb评分 6.8/10 from 111487 users
◎IMDb链接 https://www.imdb.com/title/tt0106918
◎豆瓣评分 7.2/10 from 3390 users
◎豆瓣链接 https://movie.douban.com/subject/1294537/
◎片  长 154 分钟
◎导  演 Sydney Pollack
◎编  剧 David Rabe / Robert Towne / David Rayfiel / 约翰·格里森姆 John Grisham
◎主  演 Tom Cruise
      Holly Hunter
      Gene Hackman
      Ed Harris
      David Strathairn
      Tobin Bell
      Jeanne Tripplehorn



◎简  介

  作为初出茅庐的律师新手,米奇(汤姆·克鲁斯 Tom Cruise 饰)幸运的得到了一家知名律师事务所的垂青,该事务所不仅在职位上十分看重米奇,更是在经济方面给予了米奇和其妻子艾比(珍妮·特里普里霍恩 Jeanne Tripplehorn 饰)极大的帮助。
  个性耿直善良又极富正义感的米奇在高兴之余决定在律师行业里大展拳脚,但随着时间的推移,米奇发现,这个事务所所经营的案件并非表面上所看到的那么简单,除了离奇死亡的律师外,事务所更是和黑道有着千丝万缕的非法关联。年轻的米奇站在了人生的十字路口上,是顺从于事务所的安排与其同流合污,还是勇敢的站出来,冒着死亡的风险协助警察调查事务所的底细?米奇心中已经有了答案。

◎获奖情况

  第66届奥斯卡金像奖(1994)
  最佳女配角(提名) 霍利·亨特
  最佳原创配乐(提名) 戴夫·格鲁辛

  第47届英国电影学院奖(1994)
  电影奖 最佳女配角(提名) 霍利·亨特
Video
ID : 1
Format : HEVC
Format/Info : High Efficiency Video Coding
Format profile : Main@L5@High
Codec ID : V_MPEGH/ISO/HEVC
Duration : 2 h 34 min
Bit rate : 14.6 Mb/s
Width : 3 840 pixels
Height : 2 160 pixels
Display aspect ratio : 16:9
Frame rate mode : Constant
Frame rate : 23.976 (24000/1001/189150) FPS
Color space : YUV
Chroma subsampling : 4:2:0
Bit depth : 8 bits
Bits/(Pixel*Frame) : 0.074
Stream size : 15.8 GiB (95%)
Language : English
Default : Yes
Forced : No
Color range : Limited
Color primaries : BT.709
Transfer characteristics : BT.709
Matrix coefficients : BT.709
Statistics Tags Issue : no_variable_data 1970-01-01 00:00:00 / no_variable_data 2010-02-22 21:41:29
FromStats_BitRate : 14939609
FromStats_Duration : 02:34:31.730000000
FromStats_FrameCount : 222299
FromStats_StreamSize : 17314503303

Audio
ID : 2
Format : E-AC-3
Format/Info : Enhanced AC-3
Commercial name : Dolby Digital Plus
Codec ID : A_EAC3
Duration : 2 h 34 min
Bit rate mode : Constant
Bit rate : 448 kb/s
Channel(s) : 6 channels
Channel layout : L R C LFE Ls Rs
Sampling rate : 48.0 kHz
Frame rate : 31.250 FPS (1536 SPF)
Compression mode : Lossy
Stream size : 495 MiB (3%)
Language : English
Service kind : Complete Main
Default : Yes
Forced : No
Statistics Tags Issue : no_variable_data 1970-01-01 00:00:00 / no_variable_data 2010-02-22 21:41:29
FromStats_BitRate : 448000
FromStats_Duration : 02:34:31.744000000
FromStats_FrameCount : 289742
FromStats_StreamSize : 519217664

Text
ID : 3
Format : UTF-8
Codec ID : S_TEXT/UTF8
Codec ID/Info : UTF-8 Plain Text
Title : English (SDH)
Language : English
Default : No
Forced : No
Statistics Tags Issue : no_variable_data 1970-01-01 00:00:00 / no_variable_data 2010-02-22 21:41:29
FromStats_BitRate : 57
FromStats_Duration : 02:30:44.060000000
FromStats_FrameCount : 2397
FromStats_StreamSize : 65309


733a888438116.png 96976ed7d6094.png
a41a5716918a6.png

游客,如果您要查看本帖隐藏内容请回复



.

上一篇:《海豚礁/迪士尼乐园:海豚礁》4K高清下载/8.91GB
下一篇:《真爱至上/ 爱是您,爱是我(台)》4K高清下载/14.41GB
回复

使用道具 举报

0

主题

1433

帖子

3847

积分

4K家园VIP

Rank: 9Rank: 9Rank: 9

积分
3847
发表于 2020-4-4 12:10:13 来自手机 | 显示全部楼层
正需要
回复 支持 反对

使用道具 举报

2

主题

1121

帖子

3217

积分

4K家园VIP

Rank: 9Rank: 9Rank: 9

积分
3217
发表于 2020-4-7 08:23:14 | 显示全部楼层
我擦!我要沙发!
回复 支持 反对

使用道具 举报

0

主题

1131

帖子

3409

积分

4K家园VIP

Rank: 9Rank: 9Rank: 9

积分
3409
发表于 2020-4-7 09:31:05 | 显示全部楼层
LZ帖子不给力,勉强给回复下吧
回复 支持 反对

使用道具 举报

3

主题

1169

帖子

3345

积分

4K家园VIP

Rank: 9Rank: 9Rank: 9

积分
3345
发表于 2020-4-7 23:07:02 | 显示全部楼层
什么东西啊
回复 支持 反对

使用道具 举报

3

主题

999

帖子

3023

积分

4K家园VIP

Rank: 9Rank: 9Rank: 9

积分
3023
发表于 2020-4-8 01:27:18 | 显示全部楼层
珍爱生命,果断回帖。
回复 支持 反对

使用道具 举报

您需要登录后才可以回帖 登录 | 立即注册

本版积分规则

精彩图文
Archiver|手机版|TAG|Sitemap|新帖|专题|联系我们:邮箱: 4kjia.com@gmail.com   

4k家园   ©2019