《真爱至上/ 爱是您,爱是我(台)》4K高清下载/14.41GB

[复制链接]

632

主题

647

帖子

8577

积分

4K家园VIP

Rank: 9Rank: 9Rank: 9

积分
8577
 楼主| 发表于 2020-4-4 12:21:01 | 显示全部楼层 |阅读模式

202d4349a9fda.png

◎译  名 真爱至上 / Love Actually Is All Around / 爱是您,爱是我(台) / 真情角落 / 真爱 / 真的恋爱了(港)
◎片  名 Love Actually
◎年  代 2003
◎产  地 英国 / 美国 / 法国
◎类  别 剧情 / 喜剧 / 爱情
◎语  言 英语 / 葡萄牙语 / 法语
◎上映日期 2003-09-07(多伦多电影节) / 2003-11-06(美国) / 2003-11-21(英国)
◎IMDb评分 7.6/10 from 408792 users
◎IMDb链接 https://www.imdb.com/title/tt0314331
◎豆瓣评分 8.6/10 from 505660 users
◎豆瓣链接 https://movie.douban.com/subject/1292401/
◎片  长 135 分钟
◎导  演 理查德·柯蒂斯 Richard Curtis
◎编  剧 理查德·柯蒂斯 Richard Curtis
◎主  演 休·格兰特 Hugh Grant
      柯林·菲尔斯 Colin Firth
      艾玛·汤普森 Emma Thompson
      凯拉·奈特莉 Keira Knightley
      连姆·尼森 Liam Neeson
      托马斯·桑斯特 Thomas Sangster
      比尔·奈伊 Bill Nighy
      马丁·弗瑞曼 Martin Freeman
      劳拉·琳妮 Laura Linney
      艾伦·瑞克曼 Alan Rickman
      克里斯·马歇尔 Kris Marshall
      罗德里格·桑托罗 Rodrigo Santoro
      罗温·艾金森 Rowan Atkinson
      比利·鲍伯·松顿 Billy Bob Thornton
      玛汀·麦古基安 Martine McCutcheon
      安德鲁·林肯 Andrew Lincoln
      露西娅·莫尼斯 Lúcia Moniz
      海克·玛卡琪 Heike Makatsch


◎简  介

  这是一出10个爱情故事串成的喜剧杂烩:
  失去母亲的小男孩终日郁郁寡欢,继父不知该如何安慰。当他得知继子喜欢上学校里最美的女孩,便热烈地鼓励儿子去追。小男孩为了赢得小女孩的关注,废寝忘食地练习架子鼓,只为了在圣诞节的晚会上能与她同台演出。勇敢的他,甚至为了最后的一记道别潇 洒地突破机场的安检区。
  两个孩子的母亲面对了婚姻危机。丈夫感情出轨,把项链送给了别的女人,给她的,则仅是一张她热爱的女歌手的CD。她找了借口仓皇躲入卧室,在歌声中隐忍啜泣。转个身,又夸张地大笑着,迎向娇女爱子欢喜的面容。 丈夫最终幡然醒悟。
  ……
  如此的小故事共有十出,温暖你我的心。

◎获奖情况

  第61届金球奖(2004)
  电影类 最佳音乐/喜剧片(提名)
  电影类 最佳编剧(提名) 理查德·柯蒂斯

  第57届英国电影学院奖(2004)
  电影奖 最佳英国影片(提名) 埃里克·菲尔纳 / 理查德·柯蒂斯 / 蒂姆·贝文 / Duncan Kenworthy
  电影奖 最佳男配角 比尔·奈伊
  电影奖 最佳女配角(提名) 艾玛·汤普森
Video
ID : 1
Format : HEVC
Format/Info : High Efficiency Video Coding
Format profile : Main@L5@High
Codec ID : V_MPEGH/ISO/HEVC
Duration : 2 h 14 min
Bit rate : 14.6 Mb/s
Width : 3 840 pixels
Height : 2 160 pixels
Display aspect ratio : 16:9
Frame rate mode : Constant
Frame rate : 23.976 (24000/1001/189150) FPS
Color space : YUV
Chroma subsampling : 4:2:0
Bit depth : 8 bits
Bits/(Pixel*Frame) : 0.073
Stream size : 13.7 GiB (95%)
Language : English
Default : Yes
Forced : No
Color range : Limited
Color primaries : BT.709
Transfer characteristics : BT.709
Matrix coefficients : BT.709
Statistics Tags Issue : no_variable_data 1970-01-01 00:00:00 / no_variable_data 2010-02-22 21:41:29
FromStats_BitRate : 14862940
FromStats_Duration : 02:14:44.501000000
FromStats_FrameCount : 193834
FromStats_StreamSize : 15019932195

Audio
ID : 2
Format : E-AC-3
Format/Info : Enhanced AC-3
Commercial name : Dolby Digital Plus
Codec ID : A_EAC3
Duration : 2 h 14 min
Bit rate mode : Constant
Bit rate : 448 kb/s
Channel(s) : 6 channels
Channel layout : L R C LFE Ls Rs
Sampling rate : 48.0 kHz
Frame rate : 31.250 FPS (1536 SPF)
Compression mode : Lossy
Stream size : 432 MiB (3%)
Language : English
Service kind : Complete Main
Default : Yes
Forced : No
Statistics Tags Issue : no_variable_data 1970-01-01 00:00:00 / no_variable_data 2010-02-22 21:41:29
FromStats_BitRate : 448000
FromStats_Duration : 02:14:44.480000000
FromStats_FrameCount : 252640
FromStats_StreamSize : 452730880

Text
ID : 3
Format : UTF-8
Codec ID : S_TEXT/UTF8
Codec ID/Info : UTF-8 Plain Text
Title : English (SDH)
Language : English
Default : No
Forced : No
Statistics Tags Issue : no_variable_data 1970-01-01 00:00:00 / no_variable_data 2010-02-22 21:41:29
FromStats_BitRate : 72
FromStats_Duration : 02:13:27.977000000
FromStats_FrameCount : 1823
FromStats_StreamSize : 72104



6719d7641406f.png 74080bba07872.png 619418dee38e1.png


游客,如果您要查看本帖隐藏内容请回复



.



上一篇:《糖衣陷阱/律师事务所》4K高清下载/16.61GB
下一篇:《大象》4K高清下载/10.06GB
回复

使用道具 举报

0

主题

1147

帖子

3291

积分

4K家园VIP

Rank: 9Rank: 9Rank: 9

积分
3291
发表于 2020-4-4 12:34:21 | 显示全部楼层
好像还可以
回复 支持 反对

使用道具 举报

40

主题

1327

帖子

3777

积分

4K家园VIP

Rank: 9Rank: 9Rank: 9

积分
3777
发表于 2020-4-11 01:48:44 | 显示全部楼层
秀起来~
回复 支持 反对

使用道具 举报

0

主题

1

帖子

6

积分

新手上路

Rank: 1

积分
6
发表于 2020-4-11 07:25:46 来自手机 | 显示全部楼层
1扭扭捏捏
回复

使用道具 举报

2

主题

1167

帖子

3474

积分

4K家园VIP

Rank: 9Rank: 9Rank: 9

积分
3474
发表于 2020-4-12 19:51:31 | 显示全部楼层
谢谢楼主
回复 支持 反对

使用道具 举报

55

主题

1261

帖子

3637

积分

4K家园VIP

Rank: 9Rank: 9Rank: 9

积分
3637
发表于 2020-4-14 14:21:11 | 显示全部楼层
我擦!我要沙发!
回复 支持 反对

使用道具 举报

0

主题

1139

帖子

3257

积分

4K家园VIP

Rank: 9Rank: 9Rank: 9

积分
3257
发表于 2020-4-15 07:48:35 | 显示全部楼层
好,很好,非常好!
回复 支持 反对

使用道具 举报

0

主题

1293

帖子

5431

积分

4K家园VIP

Rank: 9Rank: 9Rank: 9

积分
5431
发表于 2020-4-15 08:12:16 | 显示全部楼层
太好啦&萬分感謝版主的無私發佈分享%
回复 支持 反对

使用道具 举报

0

主题

3

帖子

45

积分

新手上路

Rank: 1

积分
45
发表于 2020-7-11 03:37:01 | 显示全部楼层
这个也有4K资源,6了
回复 支持 反对

使用道具 举报

您需要登录后才可以回帖 登录 | 立即注册

本版积分规则

精彩图文
Archiver|手机版|TAG|Sitemap|新帖|专题|联系我们:邮箱: 4kjia.com@gmail.com   

4k家园   ©2019