《别惹德州/辣味双拼(台)》4K高清下载/大小9.34GB

[复制链接]

631

主题

646

帖子

8560

积分

4K家园VIP

Rank: 9Rank: 9Rank: 9

积分
8560
 楼主| 发表于 2020-4-4 13:05:55 | 显示全部楼层 |阅读模式
本帖最后由 叽里呱啦 于 2020-4-4 13:19 编辑

p2259181508.webp_meitu_1.jpg

◎译  名 别惹德州 / Don't Mess with Texas / 火热追捕 / 热力追踪 / 辣味双拼(台) / 追女狂想曲
◎片  名 Hot Pursuit
◎年  代 2015
◎产  地 美国
◎类  别 喜剧 / 动作
◎语  言 英语 / 西班牙语
◎上映日期 2015-05-08(美国)
◎IMDb评分 5.1/10 from 46537 users
◎IMDb链接 https://www.imdb.com/title/tt2967224
◎豆瓣评分 5.4/10 from 4766 users
◎豆瓣链接 https://movie.douban.com/subject/25827399/
◎片  长 87分钟
◎导  演 安妮·弗莱彻 Anne Fletcher
◎编  剧 David Feeney / John Quaintance
◎主  演 瑞茜·威瑟斯彭 Reese Witherspoon
      索菲娅·维加拉 Sofía Vergara
      迈克尔·莫斯利 Michael Mosley
      马修·德尔·内格罗 Matthew Del Negro
      约翰·卡洛·林奇 John Carroll Lynch
      罗伯特·卡辛斯基 Robert Kazinsky
      理查德·琼斯 Richard T. Jones
      华金·科西奥 Joaquín Cosio
      吉姆·加菲根 Jim Gaffigan
      迈克·比尔比利亚 Mike Birbiglia
      维森特·拉雷斯卡 Vincent Laresca
      大卫·詹森 David Jensen
      马克·库布尔 Mark Kubr



◎简  介

  库珀(瑞茜·威瑟斯彭 Reese Witherspoon 饰)是一名拥有着超强正义感的火爆女警,在上司的安排下,她接受了一个艰巨的任务,那就是护送一位名为丹尼艾拉(索菲娅·维加拉 Sofia Vergara 饰)的金发美女前往达拉斯,在那里,安妮艾拉将会成为指证毒枭的重要证人。
  让库珀没有想到的是,丹尼艾拉的个性和自己一样一点就着,一山容不得二虎,两个女人之间从见面一开始就充满了浓浓的火药味,这将注定不会是一段太平的旅途。更糟糕的是,库珀一行人刚刚出发没多久就遭到了黑帮分子的伏击,丹尼艾拉的丈夫里瓦先生(文森特·拉斯卡 Vincent Laresca 饰)更是在交火之中不幸丧生。作为仅剩的幸存者,库珀和丹尼艾拉该如何抵达目的地,完成她们的使命呢?

◎获奖情况

  第17届美国青少年选择奖(2015)
  最佳喜剧片女演员(提名) 瑞茜·威瑟斯彭
  最佳银幕拍档(提名) 瑞茜·威瑟斯彭 / 索菲娅·维加拉
  最佳电影吻戏(提名) 瑞茜·威瑟斯彭 / 索菲娅·维加拉
  Choice Movie: Hissy Fit(提名) 瑞茜·威瑟斯彭
Video
ID : 1
Format : HEVC
Format/Info : High Efficiency Video Coding
Format profile : Main@L5@High
Codec ID : V_MPEGH/ISO/HEVC
Duration : 1 h 27 min
Bit rate : 14.4 Mb/s
Width : 3 840 pixels
Height : 2 160 pixels
Display aspect ratio : 16:9
Frame rate mode : Constant
Frame rate : 23.976 (24000/1001/189150) FPS
Color space : YUV
Chroma subsampling : 4:2:0
Bit depth : 8 bits
Bits/(Pixel*Frame) : 0.072
Stream size : 8.80 GiB (95%)
Language : English
Default : Yes
Forced : No
Statistics Tags Issue : no_variable_data 1970-01-01 00:00:00 / no_variable_data 2010-02-22 21:41:29
FromStats_BitRate : 14704200
FromStats_Duration : 01:27:28.666000000
FromStats_FrameCount : 125842
FromStats_StreamSize : 9647179548

Audio
ID : 2
Format : E-AC-3
Format/Info : Enhanced AC-3
Commercial name : Dolby Digital Plus
Codec ID : A_EAC3
Duration : 1 h 27 min
Bit rate mode : Constant
Bit rate : 448 kb/s
Channel(s) : 6 channels
Channel layout : L R C LFE Ls Rs
Sampling rate : 48.0 kHz
Frame rate : 31.250 FPS (1536 SPF)
Compression mode : Lossy
Stream size : 280 MiB (3%)
Language : English
Service kind : Complete Main
Default : Yes
Forced : No
Statistics Tags Issue : no_variable_data 1970-01-01 00:00:00 / no_variable_data 2010-02-22 21:41:29
FromStats_BitRate : 448000
FromStats_Duration : 01:27:28.672000000
FromStats_FrameCount : 164021
FromStats_StreamSize : 293925632

Text
ID : 3
Format : UTF-8
Codec ID : S_TEXT/UTF8
Codec ID/Info : UTF-8 Plain Text
Title : English (SDH)
Language : English
Default : No
Forced : No
Statistics Tags Issue : no_variable_data 1970-01-01 00:00:00 / no_variable_data 2010-02-22 21:41:29
FromStats_BitRate : 94
FromStats_Duration : 01:25:15.576000000
FromStats_FrameCount : 2012
FromStats_StreamSize : 60501


23527220491067579331_thumb.png 51577781206518120362_thumb.png 78837907638374342025_thumb.png

游客,如果您要查看本帖隐藏内容请回复




.

上一篇:《迫降航班/机密真相 》4K高清下载/大小12.88GB
下一篇:《落水姻缘》4K高清下载/大小11.04GBGB
回复

使用道具 举报

36

主题

1192

帖子

3396

积分

4K家园VIP

Rank: 9Rank: 9Rank: 9

积分
3396
发表于 2020-4-4 13:06:57 | 显示全部楼层
众里寻他千百度,蓦然回首在这里!
回复 支持 反对

使用道具 举报

0

主题

1157

帖子

3333

积分

4K家园VIP

Rank: 9Rank: 9Rank: 9

积分
3333
发表于 2020-4-4 13:06:57 | 显示全部楼层
珍爱生命,果断回帖。
回复 支持 反对

使用道具 举报

1

主题

1163

帖子

3331

积分

4K家园VIP

Rank: 9Rank: 9Rank: 9

积分
3331
发表于 2020-4-4 13:06:57 | 显示全部楼层
纯粹路过,没任何兴趣,仅仅是看在老用户份上回复一下
回复 支持 反对

使用道具 举报

1

主题

1153

帖子

3247

积分

4K家园VIP

Rank: 9Rank: 9Rank: 9

积分
3247
发表于 2020-4-4 23:34:52 | 显示全部楼层
额.....这个可以有
回复 支持 反对

使用道具 举报

0

主题

1421

帖子

8815

积分

金牌会员

Rank: 6Rank: 6

积分
8815
发表于 2020-4-5 06:30:43 | 显示全部楼层
谢谢分享!!
回复

使用道具 举报

1

主题

1191

帖子

3421

积分

4K家园VIP

Rank: 9Rank: 9Rank: 9

积分
3421
发表于 2020-4-6 03:53:50 | 显示全部楼层
看着好像不错
回复 支持 反对

使用道具 举报

0

主题

139

帖子

3109

积分

中级会员

Rank: 4

积分
3109
发表于 2020-4-6 13:10:56 | 显示全部楼层
楼主发贴辛苦了,谢谢楼主分享!我觉得来4K家园是注册对了!
回复 支持 反对

使用道具 举报

0

主题

1263

帖子

6130

积分

高级会员

Rank: 3Rank: 3

积分
6130
发表于 2020-4-10 13:57:08 | 显示全部楼层
真是太棒了,辛苦了。感謝!
回复 支持 反对

使用道具 举报

您需要登录后才可以回帖 登录 | 立即注册

本版积分规则

精彩图文
Archiver|手机版|TAG|Sitemap|新帖|专题|联系我们:邮箱: 4kjia.com@gmail.com   

4k家园   ©2019