《落水姻缘》4K高清下载/大小11.04GBGB

[复制链接]

631

主题

646

帖子

8563

积分

4K家园VIP

Rank: 9Rank: 9Rank: 9

积分
8563
 楼主| 发表于 2020-4-4 13:14:04 | 显示全部楼层 |阅读模式

QQ图片20200404131241_meitu_1.jpg

◎译  名 落水姻缘
◎片  名 Overboard
◎年  代 2018
◎产  地 美国
◎类  别 喜剧 / 爱情
◎语  言 英语 / 挪威语 / 西班牙语 / 法语
◎上映日期 2018-05-04(美国)
◎IMDb评分 6.0/10 from 30715 users
◎IMDb链接 https://www.imdb.com/title/tt1563742
◎豆瓣评分 6.6/10 from 2950 users
◎豆瓣链接 https://movie.douban.com/subject/4191645/
◎片  长 112分钟
◎导  演 罗布·格林伯格 Rob Greenberg / 鲍勃·费希尔 Bob Fisher
◎编  剧 莱斯利·迪克逊 Leslie Dixon / 鲍勃·费希尔 Bob Fisher / 罗布·格林伯格 Rob Greenberg
◎主  演 安娜·法瑞丝 Anna Faris
      伊娃·朗格利亚 Eva Longoria
      约翰·汉纳 John Hannah
      艾赫尼奥·德伯兹 Eugenio Derbez
      斯薇兹·昆茨 Swoosie Kurtz
      阿利维亚·阿林·林德 Alyvia Alyn Lind
      艾米莉·麦迪森 Emily Maddison
      加里·切克 Gary Chalk
      汉娜·诺德伯格 Hannah Nordberg
      塞西莉亚·苏亚雷斯 Cecilia Suárez
      杰苏斯·欧乔阿 Jesús Ochoa
      埃里克·李塞德 Eric Keenleyside
      奥马尔·查帕罗 Omar Chaparro
      尼尔斯·霍涅斯卡德 Nils Hognestad


◎简  介

  伊娃·朗格利亚加盟米高梅新版[落水姻缘],主演安娜·法瑞丝、艾赫尼奥·德伯兹。罗伯·格林伯格(《老爸老妈的浪漫史》)、鲍勃·费希尔([冒牌家庭])共任编剧并执导。1987年老版主演歌蒂·韩、库尔特·拉塞尔。新版男女主角身份与老版颠倒,围绕一个富家子与一个工薪阶层女子间的浪漫故事展开。
Video
ID : 1
Format : HEVC
Format/Info : High Efficiency Video Coding
Format profile : Main@L5@High
Codec ID : V_MPEGH/ISO/HEVC
Duration : 1 h 52 min
Bit rate : 13.5 Mb/s
Width : 3 840 pixels
Height : 2 160 pixels
Display aspect ratio : 16:9
Frame rate mode : Constant
Frame rate : 23.976 (24000/1001/189150) FPS
Color space : YUV
Chroma subsampling : 4:2:0
Bit depth : 8 bits
Bits/(Pixel*Frame) : 0.068
Stream size : 10.6 GiB (97%)
Language : English
Default : Yes
Forced : No
Statistics Tags Issue : no_variable_data 1970-01-01 00:00:00 / no_variable_data 2010-02-22 21:41:29
FromStats_BitRate : 13758943
FromStats_Duration : 01:52:18.197000000
FromStats_FrameCount : 161555
FromStats_StreamSize : 11588808674

Audio
ID : 2
Format : E-AC-3
Format/Info : Enhanced AC-3
Commercial name : Dolby Digital Plus
Codec ID : A_EAC3
Duration : 1 h 52 min
Bit rate mode : Constant
Bit rate : 192 kb/s
Channel(s) : 6 channels
Channel layout : L R C LFE Ls Rs
Sampling rate : 48.0 kHz
Frame rate : 31.250 FPS (1536 SPF)
Compression mode : Lossy
Stream size : 154 MiB (1%)
Language : English
Service kind : Complete Main
Default : Yes
Forced : No
Statistics Tags Issue : no_variable_data 1970-01-01 00:00:00 / no_variable_data 2010-02-22 21:41:29
FromStats_BitRate : 192000
FromStats_Duration : 01:52:18.208000000
FromStats_FrameCount : 210569
FromStats_StreamSize : 161716992

Text
ID : 3
Format : UTF-8
Codec ID : S_TEXT/UTF8
Codec ID/Info : UTF-8 Plain Text
Title : English (SDH)
Language : English
Default : No
Forced : No
Statistics Tags Issue : no_variable_data 1970-01-01 00:00:00 / no_variable_data 2010-02-22 21:41:29
FromStats_BitRate : 68
FromStats_Duration : 01:48:28.050000000
FromStats_FrameCount : 1795
FromStats_StreamSize : 55625


097ee4eeb907e.png b1f030bf7847f.png b33da4b2487e9.png


游客,如果您要查看本帖隐藏内容请回复



.


上一篇:《别惹德州/辣味双拼(台)》4K高清下载/大小9.34GB
下一篇:《圣诞公主》4K高清下载/大小6.18GB
回复

使用道具 举报

2

主题

1121

帖子

3217

积分

4K家园VIP

Rank: 9Rank: 9Rank: 9

积分
3217
发表于 2020-4-4 13:19:05 | 显示全部楼层
没明白
回复 支持 反对

使用道具 举报

0

主题

1287

帖子

5407

积分

4K家园VIP

Rank: 9Rank: 9Rank: 9

积分
5407
发表于 2020-4-4 15:02:55 | 显示全部楼层
太好啦&萬分感謝版主的無私發佈分享%
回复 支持 反对

使用道具 举报

46

主题

1304

帖子

3738

积分

4K家园VIP

Rank: 9Rank: 9Rank: 9

积分
3738
发表于 2020-4-4 22:56:16 | 显示全部楼层
好,很好,非常好!
回复 支持 反对

使用道具 举报

0

主题

1

帖子

6

积分

新手上路

Rank: 1

积分
6
发表于 2020-4-5 00:00:14 | 显示全部楼层
感谢分享
回复

使用道具 举报

0

主题

1421

帖子

8815

积分

金牌会员

Rank: 6Rank: 6

积分
8815
发表于 2020-4-5 06:30:53 | 显示全部楼层
谢谢分享!!
回复

使用道具 举报

0

主题

1287

帖子

5407

积分

4K家园VIP

Rank: 9Rank: 9Rank: 9

积分
5407
发表于 2020-4-6 17:45:35 | 显示全部楼层
太好啦&萬分感謝版主的無私發佈分享%
回复 支持 反对

使用道具 举报

0

主题

139

帖子

3109

积分

中级会员

Rank: 4

积分
3109
发表于 2020-4-7 13:41:37 | 显示全部楼层

感谢楼主的无私分享!要想4K家园好 就靠你我他
回复 支持 反对

使用道具 举报

3

主题

1169

帖子

3345

积分

4K家园VIP

Rank: 9Rank: 9Rank: 9

积分
3345
发表于 2020-4-7 14:09:02 | 显示全部楼层
为了三千积分!
回复 支持 反对

使用道具 举报

0

主题

9

帖子

47

积分

新手上路

Rank: 1

积分
47
发表于 2020-4-8 16:31:02 | 显示全部楼层
这个好
回复

使用道具 举报

您需要登录后才可以回帖 登录 | 立即注册

本版积分规则

精彩图文
Archiver|手机版|TAG|Sitemap|新帖|专题|联系我们:邮箱: 4kjia.com@gmail.com   

4k家园   ©2019