[韩国MV] 哦,我的女孩-不间断 [2160P/MP4/441MB]

[复制链接]

1983

主题

2239

帖子

1万

积分

超级版主

Rank: 8Rank: 8

积分
17939
 楼主| 发表于 2020-4-29 12:06:20 | 显示全部楼层 |阅读模式
哦,我的女孩-不间断 4k_20200429115226.JPG 哦,我的女孩-不间断 4k_20200429115252.JPG 哦,我的女孩-不间断 4k_20200429115338.JPG 哦,我的女孩-不间断 4k_20200429115342.JPG 哦,我的女孩-不间断 4k_20200429115356.JPG 哦,我的女孩-不间断 4k_20200429115401.JPG

General
Complete name                  : 哦,我的女孩-不间断 4k.mp4
Format                         : MPEG-4
Format profile                 : Base Media
Codec ID                       : isom (isom/iso2/avc1/mp41)
File size                      : 442 MiB
Duration                       : 3 min 23 s
Overall bit rate               : 18.2 Mb/s
Writing application            : Lavf58.12.100
exvr                           : EX1.6.0(C1.0.9)

Video
ID                             : 1
Format                         : AVC
Format/Info                    : Advanced Video Codec
Format profile                 : High@L5.1
Format settings                : CABAC / 3 Ref Frames
Format settings, CABAC         : Yes
Format settings, Reference fra : 3 frames
Codec ID                       : avc1
Codec ID/Info                  : Advanced Video Coding
Duration                       : 3 min 23 s
Bit rate                       : 18.0 Mb/s
Width                          : 3 840 pixels
Height                         : 2 160 pixels
Display aspect ratio           : 16:9
Frame rate mode                : Constant
Frame rate                     : 23.976 (23976/1000) FPS
Color space                    : YUV
Chroma subsampling             : 4:2:0
Bit depth                      : 8 bits
Scan type                      : Progressive
Bits/(Pixel*Frame)             : 0.091
Stream size                    : 437 MiB (99%)
Color range                    : Limited
Color primaries                : BT.709
Transfer characteristics       : BT.709
Matrix coefficients            : BT.709
Codec configuration box        : avcC

Audio
ID                             : 2
Format                         : AAC LC
Format/Info                    : Advanced Audio Codec Low Complexity
Codec ID                       : mp4a-40-2
Duration                       : 3 min 23 s
Duration_LastFrame             : -1 ms
Bit rate mode                  : Constant
Bit rate                       : 192 kb/s
Channel(s)                     : 2 channels
Channel layout                 : L R
Sampling rate                  : 48.0 kHz
Frame rate                     : 46.875 FPS (1024 SPF)
Compression mode               : Lossy
Stream size                    : 4.66 MiB (1%)
Default                        : Yes
Alternate group                : 1




网盘下载失效不补:链接: https://pan.baidu.com/s/1ucYfIJriSYUBLQhFrgNTXg 提取码:
****此区域为收费内容****    需支付 30 金币后可查看立即购买




.


上一篇:[韩国MV] 2020(G)I-DLE —“哦,天哪” [2160P/MP4/328MB]
下一篇:4K家园 加长韩国现场舞蹈Apink
回复

使用道具 举报

50

主题

1302

帖子

3722

积分

4K家园VIP

Rank: 9Rank: 9Rank: 9

积分
3722
发表于 2020-4-29 12:06:25 | 显示全部楼层
分享的不错,希望楼主继续分享
回复 支持 反对

使用道具 举报

2

主题

1157

帖子

3489

积分

4K家园VIP

Rank: 9Rank: 9Rank: 9

积分
3489
发表于 2020-4-29 12:06:25 | 显示全部楼层
传说中的沙发???哇卡卡
回复 支持 反对

使用道具 举报

0

主题

1421

帖子

8815

积分

金牌会员

Rank: 6Rank: 6

积分
8815
发表于 2020-4-29 15:37:45 | 显示全部楼层
谢谢楼主。。。。。。。。。。。。。。。。。
回复

使用道具 举报

0

主题

47

帖子

837

积分

新手上路

Rank: 1

积分
837
发表于 2020-4-29 22:06:07 | 显示全部楼层

支持楼主,顶一个!
回复 支持 反对

使用道具 举报

1

主题

1395

帖子

3825

积分

4K家园VIP

Rank: 9Rank: 9Rank: 9

积分
3825
发表于 2020-4-30 11:30:10 来自手机 | 显示全部楼层
支持,楼下的跟上哈~
回复 支持 反对

使用道具 举报

36

主题

1190

帖子

3390

积分

4K家园VIP

Rank: 9Rank: 9Rank: 9

积分
3390
发表于 2020-4-30 13:38:47 | 显示全部楼层
看帖要回,回帖才健康,在踩踩,楼主辛苦了!
回复 支持 反对

使用道具 举报

49

主题

1237

帖子

3517

积分

4K家园VIP

Rank: 9Rank: 9Rank: 9

积分
3517
发表于 2020-4-30 18:14:48 | 显示全部楼层
众里寻他千百度,蓦然回首在这里!
回复 支持 反对

使用道具 举报

您需要登录后才可以回帖 登录 | 立即注册

本版积分规则

精彩图文
Archiver|手机版|TAG|Sitemap|新帖|专题|联系我们:邮箱: 4kjia.com@gmail.com   

4k家园   ©2019