[4K电影] 秘密总部 / Secret Headquarters (2022) 4K高清版本下载

[复制链接]

2327

主题

2476

帖子

1万

积分

超级版主

Rank: 8Rank: 8

积分
17940
 楼主| 发表于 2022-8-12 19:51:11 | 显示全部楼层 |阅读模式
本帖最后由 最爱4K哟 于 2022-8-12 19:51 编辑

QQ图片20220812194536_副本.png
◎译  名 秘密总部
◎片  名 Secret Headquarters
◎年  代 2022
◎产  地 美国
◎类  别 动作 / 科幻 / 冒险
◎语  言 英语
◎上映日期 2022-08-12(美国网络)
◎IMDb评分 8.1/10 from 63 users 更新2022-08-12
◎IMDb链接 https://www.imdb.com/title/tt14001894/
◎豆瓣评分 0/10 from 0 users
◎豆瓣链接 https://movie.douban.com/subject/35410195/
◎片  长 89分钟
◎导  演 亨利·朱斯特 Henry Joost / 阿里尔·舒曼 Ariel Schulman
◎编  剧 克里斯托弗·约斯特 Christopher Yost  / 亨利·朱斯特 Henry Joost / 阿里尔·舒曼 Ariel Schulman
◎演  员 欧文·威尔逊 Owen Wilson
       沃克·斯科贝尔 Walker Scobell
       杰西·威廉姆斯 Jesse Williams
       基思·L·威廉姆斯 Keith L. Williams
       迈克尔·佩纳 Michael Pe?a
       莫莫娜·塔玛达 Momona Tamada
       杰茜·缪勒 Jessie Mueller
       大卫·伦格尔 David Lengel
       达斯汀·英格拉姆 Dustin Ingram
       马洛里·霍夫 Mallory Hoff
       卢修斯·巴斯顿 Lucius Baston
       艾登·马利克 Aiden Malik
       安托瓦内特·梅萨姆 Antoinette Messam


◎简  介


  年轻的查理·金凯德在家中发现了一个秘密总部,似乎是属于一个超级英雄的。他告诉了他的朋友们,他们开始相信,与金凯德关系疏远的父亲可能过着秘密的双重生活。

Video
ID : 1
Format : HEVC
Format/Info : High Efficiency Video Coding
Format profile : Main 10@L5@High
HDR format : Dolby Vision, Version 1.0, dvhe.05.06, BL+RPU
Codec ID : V_MPEGH/ISO/HEVC
Duration : 1 h 43 min
Bit rate : 14.1 Mb/s
Width : 3 840 pixels
Height : 1 606 pixels
Display aspect ratio : 2.40:1
Frame rate mode : Constant
Frame rate : 23.976 (24000/1001) FPS
Color space : YUV
Chroma subsampling : 4:2:0
Bit depth : 10 bits
Bits/(Pixel*Frame) : 0.096
Stream size : 10.2 GiB (93%)
Language : English
Default : Yes
Forced : No

Audio
ID : 2
Format : E-AC-3 JOC
Format/Info : Enhanced AC-3 with Joint Object Coding
Commercial name : Dolby Digital Plus with Dolby Atmos
Codec ID : A_EAC3
Duration : 1 h 43 min
Bit rate mode : Constant
Bit rate : 768 kb/s
Channel(s) : 6 channels
Channel layout : L R C LFE Ls Rs
Sampling rate : 48.0 kHz
Frame rate : 31.250 FPS (1536 SPF)
Compression mode : Lossy
Stream size : 570 MiB (5%)
Language : English
Service kind : Complete Main
Default : Yes
Forced : No
Complexity index : 16
Number of dynamic objects : 15
Bed channel count : 1 channel
Bed channel configuration : LFE

Text
ID : 3
Format : UTF-8
Codec ID : S_TEXT/UTF8
Codec ID/Info : UTF-8 Plain Text
Title : English
Language : English
Default : No
Forced : No


资源速度为零或资源敏感被和谐时,推荐使用qBittorrent等下载软件,有条件的推荐115更好的下载软件!

下载地址:


游客,如果您要查看本帖隐藏内容请回复

游客,如果您要查看本帖隐藏内容请回复

游客,如果您要查看本帖隐藏内容请回复





上一篇:2020 环法自行车第二阶段尼斯-尼斯187公里赛/4K@50fps视频/33.54GB
下一篇:[资源首发]《黑洞表面/地平线事件》4K高清版本下载/12.40GB
回复

使用道具 举报

47

主题

1491

帖子

4267

积分

4K家园VIP

Rank: 9Rank: 9Rank: 9

积分
4267
发表于 2022-8-12 19:51:14 | 显示全部楼层
楼主这资源不错,我收藏了
回复 支持 反对

使用道具 举报

43

主题

1518

帖子

4362

积分

4K家园VIP

Rank: 9Rank: 9Rank: 9

积分
4362
发表于 2022-8-12 19:51:15 来自手机 | 显示全部楼层
你们要是有4K资源记得分享,别小气
回复 支持 反对

使用道具 举报

0

主题

27

帖子

249

积分

新手上路

Rank: 1

积分
249
发表于 2022-8-13 17:04:11 | 显示全部楼层
我草 之前下得那个是史努比 下错了啊
回复 支持 反对

使用道具 举报

0

主题

14

帖子

165

积分

新手上路

Rank: 1

积分
165
发表于 2022-8-13 21:08:49 | 显示全部楼层
感谢分享
回复

使用道具 举报

0

主题

22

帖子

48

积分

新手上路

Rank: 1

积分
48
发表于 2022-8-14 04:17:13 | 显示全部楼层
资源不错 谢谢分享
回复 支持 反对

使用道具 举报

0

主题

1

帖子

6

积分

新手上路

Rank: 1

积分
6
发表于 2022-9-7 09:09:28 | 显示全部楼层
谢谢分享
回复

使用道具 举报

您需要登录后才可以回帖 登录 | 立即注册

本版积分规则

精彩图文
Archiver|手机版|TAG|Sitemap|新帖|专题|联系我们:邮箱: 4kjia.com@gmail.com   

4k家园   ©2019