LOONA - 让我进去 [2160P/MP4/510MB]

[复制链接]

2160

主题

2438

帖子

1万

积分

超级版主

Rank: 8Rank: 8

积分
19974
 楼主| 发表于 2020-12-28 11:00:00 | 显示全部楼层 |阅读模式
LOONA - 让我进去.mp4_20201218_203649.776.jpg LOONA - 让我进去.mp4_20201218_203704.138.jpg LOONA - 让我进去.mp4_20201218_203709.714.jpg LOONA - 让我进去.mp4_20201218_203727.353.jpg


General
Complete name                  : 2020 LOONA - 让我进去.mp4
Format                         : MPEG-4
Format profile                 : Base Media
Codec ID                       : iso5 (iso5/iso6/mp41)
File size                      : 511 MiB
Duration                       : 3 min 22 s
Overall bit rate               : 21.2 Mb/s
Writing application            : Lavf58.41.100

Video
ID                             : 1
Format                         : AVC
Format/Info                    : Advanced Video Codec
Format profile                 : High@L5.2
Format settings                : CABAC / 5 Ref Frames
Format settings, CABAC         : Yes
Format settings, Reference fra : 5 frames
Codec ID                       : avc1
Codec ID/Info                  : Advanced Video Coding
Duration                       : 3 min 22 s
Bit rate                       : 20.9 Mb/s
Width                          : 3 840 pixels
Height                         : 2 160 pixels
Display aspect ratio           : 16:9
Frame rate mode                : Constant
Frame rate                     : 23.976 (24000/1001) FPS
Color space                    : YUV
Chroma subsampling             : 4:2:0
Bit depth                      : 8 bits
Scan type                      : Progressive
Bits/(Pixel*Frame)             : 0.105
Stream size                    : 505 MiB (99%)
Writing library                : x264 core 157 r10 d4099dd
Encoding settings              : cabac=1 / ref=5 / deblock=1:0:0 / analyse=0x3:0x113 / me=hex / subme=8 / psy=1 / psy_rd=1.00:0.00 / mixed_ref=1 / me_range=16 / chroma_me=1 / trellis=2 / 8x8dct=1 / cqm=0 / deadzone=21,11 / fast_pskip=1 / chroma_qp_offset=-2 / threads=48 / lookahead_threads=8 / sliced_threads=0 / nr=0 / decimate=1 / interlaced=0 / bluray_compat=0 / stitchable=1 / constrained_intra=0 / bframes=3 / b_pyramid=2 / b_adapt=2 / b_bias=0 / direct=3 / weightb=1 / open_gop=0 / weightp=2 / keyint=infinite / keyint_min=23 / scenecut=40 / intra_refresh=0 / rc_lookahead=50 / rc=crf / mbtree=1 / crf=20.0 / qcomp=0.60 / qpmin=5 / qpmax=69 / qpstep=4 / vbv_maxrate=24200 / vbv_bufsize=66000 / crf_max=0.0 / nal_hrd=none / filler=0 / ip_ratio=1.40 / aq=1:1.00
Color range                    : Limited
Color primaries                : BT.709
Transfer characteristics       : BT.709
Matrix coefficients            : BT.709
Codec configuration box        : avcC

Audio
ID                             : 2
Format                         : AAC LC
Format/Info                    : Advanced Audio Codec Low Complexity
Codec ID                       : mp4a-40-2
Duration                       : 3 min 22 s
Bit rate                       : 253 kb/s
Channel(s)                     : 2 channels
Channel layout                 : L R
Sampling rate                  : 48.0 kHz
Frame rate                     : 46.875 FPS (1024 SPF)
Compression mode               : Lossy
Stream size                    : 6.11 MiB (1%)
Default                        : Yes
Alternate group                : 1


网盘下载失效不补:链接: https://pan.baidu.com/s/1OeVKlVqNUmeCLOUNH2zlNw 提取码:
****此区域为收费内容****    需支付 15 金币后可查看立即购买


.
回复

使用道具 举报

49

主题

1289

帖子

3673

积分

4K家园VIP

Rank: 9Rank: 9Rank: 9

积分
3673
发表于 2020-12-28 11:00:08 | 显示全部楼层
广告位,,坐下看看
回复 支持 反对

使用道具 举报

40

主题

1337

帖子

3813

积分

4K家园VIP

Rank: 9Rank: 9Rank: 9

积分
3813
发表于 2020-12-30 06:38:11 | 显示全部楼层
4K电影下个试试
回复 支持 反对

使用道具 举报

1

主题

1058

帖子

3192

积分

4K家园VIP

Rank: 9Rank: 9Rank: 9

积分
3192
发表于 2021-1-1 10:26:25 | 显示全部楼层
呵呵,低调,低调!
回复 支持 反对

使用道具 举报

0

主题

1160

帖子

3494

积分

4K家园VIP

Rank: 9Rank: 9Rank: 9

积分
3494
发表于 2021-1-2 23:52:16 | 显示全部楼层
撸过
回复 支持 反对

使用道具 举报

0

主题

30

帖子

115

积分

新手上路

Rank: 1

积分
115
发表于 2021-1-3 18:09:42 | 显示全部楼层
下来欣赏一下!谢谢分享,辛苦了。
回复 支持 反对

使用道具 举报

45

主题

1330

帖子

3832

积分

4K家园VIP

Rank: 9Rank: 9Rank: 9

积分
3832
发表于 2021-1-4 17:39:13 | 显示全部楼层
这么强,支持楼主,佩服
回复 支持 反对

使用道具 举报

您需要登录后才可以回帖 登录 | 立即注册

本版积分规则

精彩图文
Archiver|手机版|TAG|Sitemap|新帖|专题|联系我们:邮箱: 4kjia.com@gmail.com   

4k家园   ©2019