[4K电影] [4K首发资源]《蓝调天后》4K高清版本下载/12.07GB

[复制链接]

240

主题

247

帖子

2670

积分

4K家园VIP

Rank: 9Rank: 9Rank: 9

积分
2670
 楼主| 发表于 2020-12-30 13:06:11 | 显示全部楼层 |阅读模式
本帖最后由 最爱4K哟 于 2020-12-30 13:54 编辑

p2623428487.jpg

◎译  名 蓝调天后 / 玛雷尼的扭摆舞 / 马雷尼的黑底
◎片  名 Ma Rainey's Black Bottom
◎年  代 2020
◎产  地 美国
◎类  别 剧情 / 音乐
◎语  言 英语
◎上映日期 2020-12-18(美国)
◎IMDb评分  7.2/10 from 7127 users
◎IMDb链接  https://www.imdb.com/title/tt10514222
◎豆瓣评分 6.9/10 from 537 users
◎豆瓣链接 https://movie.douban.com/subject/34439631/
◎导  演 乔治·乌尔夫 George C. Wolfe
◎整理链接 https://www.uump4.me/
◎编  剧 鲁本·桑地亚哥-哈德森 Ruben Santiago-Hudson / 奥古斯特·威尔逊 August Wilson
◎主  演 维奥拉·戴维斯 Viola Davis
       查德维克·博斯曼 Chadwick Boseman
       科尔曼·多明戈 Colman Domingo
       格林·特鲁曼 Glynn Turman
       约翰尼·科瓦内 Jonny Coyne
       泰勒·佩姬 Taylour Paige
       迈克尔·波茨 Michael Potts
       杰里米·萨默斯 Jeremy Shamos
       约书亚·哈尔托 Joshua Harto
       杜山·布朗 Dusan Brown
       威廉·卡尼亚 William Kania
       James Ciesielski




◎简  介  

  20世纪20 年代,在芝加哥的一场午后录音中,乐队成员们正在等待开拓性的表演者、传奇的“蓝调之母”玛·雷尼(奥斯卡金像奖得主维奥拉·戴维斯饰),其间气氛变得愈发紧张。录音进行到后期时,无畏又脾气火爆的玛和其白人经纪人及制作人就她的音乐控制权展开了一场意志的较量。雄心勃勃的小号手列维(查德维克·博斯曼饰)非常欣赏玛的女朋友,并决心在音乐行业中占有一席之地,当乐队在工作室幽闭的排演室中等待时,他促使乐手们爆出揭露真相的故事,这将永远改变他们的生活。《蓝调天后》根据两次普利策奖得主奥古斯特·威尔逊的戏剧改编而成,歌颂了蓝调的变革力量以及那些拒绝让社会偏见左右自己价值的艺术家。该电影由乔治·乌尔夫执导,鲁本·桑地亚哥-哈德森进行剧本改编,凭借《藩篱》荣获奥斯卡奖提名的丹泽尔·华盛顿和托德·布莱克担任制片人。科尔曼·多明戈、格林·特鲁曼、迈克尔·波茨、泰勒·佩姬、杜山·布朗担任联合主演,艾美奖得主布兰福德·马萨利斯进行配乐。

◎获奖情况  

  第30届哥谭独立电影奖(2020)
  最佳男演员(提名) 查德维克·博斯曼

  第41届波士顿影评人协会奖(2020)
  最佳群像表演

General
Unique ID                      : 242005324161842970388707570549586473352 (0xB61087B162C74C099E22105E2D713188)
Complete name                  : D:\360安全浏览器下载\Ma.Raineys.Black.Bottom.2020.HDR.2160p.WEBRip.x265-iNTENSO[TGx]\Ma.Raineys.Black.Bottom.2020.HDR.2160p.WEBRip.x265-iNTENSO.mkv
Format                         : Matroska
Format version                 : Version 4
File size                      : 12.1 GiB
Duration                       : 1 h 34 min
Overall bit rate               : 18.4 Mb/s
Encoded date                   : UTC 2020-12-28 09:22:00
Writing application            : mkvmerge v8.2.0 ('World of Adventure') 32bit
Writing library                : libebml v1.3.1 + libmatroska v1.4.2

Video
ID                             : 1
Format                         : HEVC
Format/Info                    : High Efficiency Video Coding
Format profile                 : Main 10@L5.1@High
HDR format                     : SMPTE ST 2086, HDR10 compatible
Codec ID                       : V_MPEGH/ISO/HEVC
Duration                       : 1 h 33 min
Bit rate                       : 17.8 Mb/s
Width                          : 3 840 pixels
Height                         : 1 920 pixels
Display aspect ratio           : 2.000
Frame rate mode                : Constant
Frame rate                     : 24.000 FPS
Color space                    : YUV
Chroma subsampling             : 4:2:0 (Type 2)
Bit depth                      : 10 bits
Bits/(Pixel*Frame)             : 0.100
Stream size                    : 11.6 GiB (96%)
Writing library                : x265 3.4+27-g241342f25:[Windows][GCC 9.3.0][64 bit] 10bit
Encoding settings              : cpuid=1111039 / frame-threads=4 / numa-pools=16 / wpp / no-pmode / no-pme / no-psnr / no-ssim / log-level=2 / input-csp=1 / input-res=3840x1920 / interlace=0 / total-frames=0 / level-idc=51 / high-tier=1 / uhd-bd=0 / ref=4 / no-allow-non-conformance / repeat-headers / annexb / no-aud / no-hrd / info / hash=0 / no-temporal-layers / no-open-gop / min-keyint=24 / keyint=250 / gop-lookahead=0 / bframes=3 / b-adapt=2 / b-pyramid / bframe-bias=0 / rc-lookahead=20 / lookahead-slices=8 / scenecut=40 / hist-scenecut=0 / radl=0 / no-splice / no-intra-refresh / ctu=64 / min-cu-size=8 / no-rect / no-amp / max-tu-size=32 / tu-inter-depth=1 / tu-intra-depth=1 / limit-tu=0 / rdoq-level=0 / dynamic-rd=0.00 / no-ssim-rd / signhide / no-tskip / nr-intra=0 / nr-inter=0 / no-constrained-intra / no-strong-intra-smoothing / max-merge=3 / limit-refs=1 / no-limit-modes / me=1 / subme=2 / merange=57 / temporal-mvp / no-frame-dup / no-hme / weightp / no-weightb / no-analyze-src-pics / deblock=-3:-3 / no-sao / no-sao-non-deblock / rd=3 / selective-sao=0 / early-skip / rskip / no-fast-intra / no-tskip-fast / no-cu-lossless / b-intra / no-splitrd-skip / rdpenalty=0 / psy-rd=2.00 / psy-rdoq=0.00 / no-rd-refine / no-lossless / cbqpoffs=0 / crqpoffs=0 / rc=crf / crf=17.0 / qcomp=0.60 / qpstep=4 / stats-write=0 / stats-read=0 / vbv-maxrate=160000 / vbv-bufsize=160000 / vbv-init=0.9 / min-vbv-fullness=50.0 / max-vbv-fullness=80.0 / crf-max=0.0 / crf-min=0.0 / ipratio=1.40 / pbratio=1.30 / aq-mode=2 / aq-strength=1.00 / no-cutree / zone-count=0 / no-strict-cbr / qg-size=32 / no-rc-grain / qpmax=69 / qpmin=0 / no-const-vbv / sar=0 / overscan=0 / videoformat=5 / range=0 / colorprim=9 / transfer=16 / colormatrix=9 / chromaloc=1 / chromaloc-top=2 / chromaloc-bottom=2 / display-window=0 / master-display=G(13250,34500)B(7500,3000)R(34000,16000)WP(15635,16450)L(10000000,1) / cll=3975,532 / min-luma=0 / max-luma=1023 / log2-max-poc-lsb=8 / vui-timing-info / vui-hrd-info / slices=1 / no-opt-qp-pps / no-opt-ref-list-length-pps / no-multi-pass-opt-rps / scenecut-bias=0.05 / hist-threshold=0.03 / no-opt-cu-delta-qp / no-aq-motion / hdr10 / hdr10-opt / no-dhdr10-opt / no-idr-recovery-sei / analysis-reuse-level=0 / analysis-save-reuse-level=0 / analysis-load-reuse-level=0 / scale-factor=0 / refine-intra=0 / refine-inter=0 / refine-mv=1 / refine-ctu-distortion=0 / no-limit-sao / ctu-info=0 / no-lowpass-dct / refine-analysis-type=0 / copy-pic=1 / max-ausize-factor=1.0 / no-dynamic-refine / no-single-sei / no-hevc-aq / no-svt / no-field / qp-adaptation-range=1.00 / no-scenecut-aware-qpconformance-window-offsets / right=0 / bottom=0 / decoder-max-rate=0 / no-vbv-live-multi-pass
Language                       : English
Default                        : Yes
Forced                         : No
Color range                    : Limited
Color primaries                : BT.2020
Transfer characteristics       : PQ
Matrix coefficients            : BT.2020 non-constant
Mastering display color primar : Display P3
Mastering display luminance    : min: 0.0001 cd/m2, max: 1000 cd/m2
Maximum Content Light Level    : 3975 cd/m2
Maximum Frame-Average Light Le : 532 cd/m2

Audio
ID                             : 2
Format                         : E-AC-3 JOC
Format/Info                    : Enhanced AC-3 with Joint Object Coding
Commercial name                : Dolby Digital Plus with Dolby Atmos
Codec ID                       : A_EAC3
Duration                       : 1 h 34 min
Bit rate mode                  : Constant
Bit rate                       : 768 kb/s
Channel(s)                     : 6 channels
Channel layout                 : L R C LFE Ls Rs
Sampling rate                  : 48.0 kHz
Frame rate                     : 31.250 FPS (1536 SPF)
Compression mode               : Lossy
Delay relative to video        : 15 ms
Stream size                    : 517 MiB (4%)
Title                          : ENG E-AC3 5.1 640kbit
Language                       : English
Service kind                   : Complete Main
Default                        : No
Forced                         : No
Complexity index               : 16
Number of dynamic objects      : 15
Bed channel count              : 1 channel
Bed channel configuration      : LFE

Text
ID                             : 3
Format                         : UTF-8
Codec ID                       : S_TEXT/UTF8
Codec ID/Info                  : UTF-8 Plain Text
Duration                       : 1 h 27 min
Bit rate                       : 99 b/s
Count of elements              : 1606
Stream size                    : 64.0 KiB (0%)
Language                       : English
Default                        : No
Forced                         : No

Ma.Raineys.Black.Bottom.2020.HDR.2160p.WEBRip.x265-iNTENSO.mkv_20201230_134532.8.jpg Ma.Raineys.Black.Bottom.2020.HDR.2160p.WEBRip.x265-iNTENSO.mkv_20201230_134543.1.jpg Ma.Raineys.Black.Bottom.2020.HDR.2160p.WEBRip.x265-iNTENSO.mkv_20201230_134605.6.jpg Ma.Raineys.Black.Bottom.2020.HDR.2160p.WEBRip.x265-iNTENSO.mkv_20201230_134549.1.jpg Ma.Raineys.Black.Bottom.2020.HDR.2160p.WEBRip.x265-iNTENSO.mkv_20201230_134640.4.jpg Ma.Raineys.Black.Bottom.2020.HDR.2160p.WEBRip.x265-iNTENSO.mkv_20201230_134558.0.jpg

温馨提示:请用qBittorrent软件可以全速下载,谢谢!

磁力链接下载:
****此区域为收费内容****    需支付 15 金币后可查看立即购买



qBittorrent下载软件地址:
游客,如果您要查看本帖隐藏内容请回复

.

回复

使用道具 举报

36

主题

1235

帖子

3525

积分

4K家园VIP

Rank: 9Rank: 9Rank: 9

积分
3525
发表于 2020-12-30 13:06:43 | 显示全部楼层
看起来好像不错的样子
回复 支持 反对

使用道具 举报

39

主题

1257

帖子

3531

积分

4K家园VIP

Rank: 9Rank: 9Rank: 9

积分
3531
发表于 2020-12-31 05:00:48 来自手机 | 显示全部楼层
我擦!我要沙发!
回复 支持 反对

使用道具 举报

0

主题

1156

帖子

3314

积分

4K家园VIP

Rank: 9Rank: 9Rank: 9

积分
3314
发表于 2020-12-31 15:14:53 | 显示全部楼层
求沙发
回复 支持 反对

使用道具 举报

0

主题

2030

帖子

7335

积分

4K家园VIP

Rank: 9Rank: 9Rank: 9

积分
7335
发表于 2020-12-31 21:32:19 | 显示全部楼层
太好啦&萬分感謝版主的無私發佈分享%
回复 支持 反对

使用道具 举报

41

主题

1360

帖子

3878

积分

4K家园VIP

Rank: 9Rank: 9Rank: 9

积分
3878
发表于 2021-1-6 11:54:18 | 显示全部楼层
我擦!我要沙发!
回复 支持 反对

使用道具 举报

0

主题

1285

帖子

3667

积分

4K家园VIP

Rank: 9Rank: 9Rank: 9

积分
3667
发表于 2021-1-6 17:45:11 | 显示全部楼层
回复 支持 反对

使用道具 举报

您需要登录后才可以回帖 登录 | 立即注册

本版积分规则

精彩图文
Archiver|手机版|TAG|Sitemap|新帖|专题|联系我们:邮箱: 4kjia.com@gmail.com   

4k家园   ©2019