2020 IZ ONE-全景(性能版本)4k [2160P/MP4/501MB]

[复制链接]

2163

主题

2441

帖子

2万

积分

超级版主

Rank: 8Rank: 8

积分
20007
 楼主| 发表于 2021-1-4 10:30:00 | 显示全部楼层 |阅读模式
本帖最后由 叽里呱啦 于 2020-12-31 20:51 编辑

2020 IZ ONE-全景(性能版本)4k.mp4_20201231_204158.256.jpg 2020 IZ ONE-全景(性能版本)4k.mp4_20201231_204209.988.jpg 2020 IZ ONE-全景(性能版本)4k.mp4_20201231_204214.407.jpg 2020 IZ ONE-全景(性能版本)4k.mp4_20201231_204221.455.jpg 2020 IZ ONE-全景(性能版本)4k.mp4_20201231_204228.767.jpg 2020 IZ ONE-全景(性能版本)4k.mp4_20201231_204234.119.jpg

General
Complete name                  : E:\4KMV\2020 IZ ONE-全景(性能版本)4k.mp4
Format                         : MPEG-4
Format profile                 : Base Media
Codec ID                       : isom (isom/iso2/avc1/mp41)
File size                      : 501 MiB
Duration                       : 3 min 45 s
Overall bit rate               : 18.6 Mb/s
Writing application            : Lavf58.12.100
exvr                           : EX1.8.2(C1.0.9)

Video
ID                             : 1
Format                         : AVC
Format/Info                    : Advanced Video Codec
Format profile                 : High@L5.1
Format settings                : CABAC / 4 Ref Frames
Format settings, CABAC         : Yes
Format settings, Reference fra : 4 frames
Codec ID                       : avc1
Codec ID/Info                  : Advanced Video Coding
Duration                       : 3 min 45 s
Bit rate                       : 18.4 Mb/s
Width                          : 3 840 pixels
Height                         : 2 160 pixels
Display aspect ratio           : 16:9
Frame rate mode                : Constant
Frame rate                     : 23.976 (23976/1000) FPS
Color space                    : YUV
Chroma subsampling             : 4:2:0
Bit depth                      : 8 bits
Scan type                      : Progressive
Bits/(Pixel*Frame)             : 0.093
Stream size                    : 496 MiB (99%)
Color range                    : Limited
Color primaries                : BT.709
Transfer characteristics       : BT.709
Matrix coefficients            : BT.709
Codec configuration box        : avcC

Audio
ID                             : 2
Format                         : AAC LC
Format/Info                    : Advanced Audio Codec Low Complexity
Codec ID                       : mp4a-40-2
Duration                       : 3 min 45 s
Bit rate mode                  : Constant
Bit rate                       : 192 kb/s
Channel(s)                     : 2 channels
Channel layout                 : L R
Sampling rate                  : 48.0 kHz
Frame rate                     : 46.875 FPS (1024 SPF)
Compression mode               : Lossy
Stream size                    : 5.16 MiB (1%)
Default                        : Yes
Alternate group                : 1


网盘下载失效不补:链接: https://pan.baidu.com/s/1aR2eco0wd7Yki5NA8YvbIw 提取码:
****此区域为收费内容****    需支付 15 金币后可查看立即购买


.
回复

使用道具 举报

37

主题

1325

帖子

3775

积分

4K家园VIP

Rank: 9Rank: 9Rank: 9

积分
3775
发表于 2021-1-4 10:30:19 | 显示全部楼层
确实不错,顶先
回复 支持 反对

使用道具 举报

0

主题

1157

帖子

3317

积分

4K家园VIP

Rank: 9Rank: 9Rank: 9

积分
3317
发表于 2021-1-5 14:50:43 来自手机 | 显示全部楼层
多谢楼主分享
回复 支持 反对

使用道具 举报

48

主题

1343

帖子

3899

积分

4K家园VIP

Rank: 9Rank: 9Rank: 9

积分
3899
发表于 2021-1-7 10:36:13 | 显示全部楼层
鄙视楼下的顶帖没我快,哈哈
回复 支持 反对

使用道具 举报

1

主题

1452

帖子

3996

积分

4K家园VIP

Rank: 9Rank: 9Rank: 9

积分
3996
发表于 2021-1-17 21:59:55 | 显示全部楼层
多发些资源啊
回复 支持 反对

使用道具 举报

48

主题

1346

帖子

3840

积分

4K家园VIP

Rank: 9Rank: 9Rank: 9

积分
3840
发表于 2021-1-17 22:22:49 | 显示全部楼层
4K应该不错,我也下个看看
回复 支持 反对

使用道具 举报

0

主题

17

帖子

43

积分

新手上路

Rank: 1

积分
43
发表于 3 天前 | 显示全部楼层
楼主辛苦了,支持一下!
回复 支持 反对

使用道具 举报

您需要登录后才可以回帖 登录 | 立即注册

本版积分规则

精彩图文
Archiver|手机版|TAG|Sitemap|新帖|专题|联系我们:邮箱: 4kjia.com@gmail.com   

4k家园   ©2019