[4K电影] 《布鲁斯·斯普林斯汀:给你的信》4K高清版本下载/15.41GB

[复制链接]

245

主题

252

帖子

2722

积分

4K家园VIP

Rank: 9Rank: 9Rank: 9

积分
2722
 楼主| 发表于 2021-1-1 09:58:13 | 显示全部楼层 |阅读模式
MV5BYzU0YjFlMGEtZjI0Zi00NGVkLTlmZTQtZTNiNjI1ZTdkMDUxXkEyXkFqcGdeQXVyMDU5MDEyMA@@._V1_.jpg


◎译  名 布鲁斯·斯普林斯汀:给你的信
◎片  名 Bruce Springsteen: Letter to You
◎年  代 2020
◎产  地 美国
◎类  别 短片 / 音乐
◎语  言 英语
◎上映日期 2020-09-10(美国)
◎IMDb评分 7.4/10 from 558 users
◎IMDb链接 https://www.imdb.com/title/tt13093506/
◎豆瓣评分 /10 from 0 users
◎豆瓣链接 https://movie.douban.com/subject/35214575/
◎片  长 85分钟
◎导  演 托姆·齐穆尼 Thom Zimny
◎主  演 布鲁斯·斯普林斯汀 Bruce Springsteen

◎标  签 美国 | 音乐 | 纪录片 | Springsteen | music | Documentary | Bruce_Springsteen | Bruce

◎简  介

  Apple TV+ 独家推出这位美国摇滚教父新碟制作过程全纪录,纪录片将带领观众一睹这位教父的音乐创作过程,由 Bruce 本人亲自剖白制作全新专辑《Letter To You》的所思所感,并收录 Bruce 与传奇乐队班底 The E Street Band 的原整歌曲演出、幕后花絮片段及从未曝光的昔日珍贵片段新作不但向 Bruce 身后的 E Street Band 一众出色乐手致敬,亦是 Bruce 本人向摇滚音乐致敬的深情自白书。
Video
ID : 1
Format : HEVC
Format/Info : High Efficiency Video Coding
Format profile : Main 10@L5@High
HDR format : SMPTE ST 2086, HDR10 compatible
Codec ID : V_MPEGH/ISO/HEVC
Duration : 1 h 25 min
Bit rate : 24.6 Mb/s
Width : 3 840 pixels
Height : 1 606 pixels
Display aspect ratio : 2.40:1
Frame rate mode : Constant
Frame rate : 23.976 (24000/1001/189150) FPS
Color space : YUV
Chroma subsampling : 4:2:0 (Type 2)
Bit depth : 10 bits
Bits/(Pixel*Frame) : 0.167
Stream size : 14.8 GiB (97%)
Language : English
Default : Yes
Forced : No
Color range : Limited
Color primaries : BT.2020
Transfer characteristics : PQ
Matrix coefficients : BT.2020 non-constant
Mastering display color primaries : Display P3
Mastering display luminance : min: 0.0050 cd/m2, max: 1000 cd/m2
Maximum Content Light Level : 1809 cd/m2
Maximum Frame-Average Light Level : 105 cd/m2

Audio
ID : 2
Format : E-AC-3 JOC
Format/Info : Enhanced AC-3 with Joint Object Coding
Commercial name : Dolby Digital Plus with Dolby Atmos
Codec ID : A_EAC3
Duration : 1 h 25 min
Bit rate mode : Constant
Bit rate : 768 kb/s
Channel(s) : 6 channels
Channel layout : L R C LFE Ls Rs
Sampling rate : 48.0 kHz
Frame rate : 31.250 FPS (1536 SPF)
Compression mode : Lossy
Stream size : 472 MiB (3%)
Language : English
Service kind : Complete Main
Default : Yes
Forced : No
Complexity index : 16
Number of dynamic objects : 15
Bed channel count : 1 channel
Bed channel configuration : LFE

Text #1
ID : 3
Format : UTF-8
Codec ID : S_TEXT/UTF8
Codec ID/Info : UTF-8 Plain Text
Duration : 1 h 25 min
Bit rate : 52 b/s
Count of elements : 960
Stream size : 32.9 KiB (0%)
Title : English
Language : English
Default : No
Forced : No

Text #2
ID : 4
Format : UTF-8
Codec ID : S_TEXT/UTF8
Codec ID/Info : UTF-8 Plain Text
Duration : 1 h 25 min
Bit rate : 62 b/s
Count of elements : 1008
Stream size : 39.2 KiB (0%)
Title : English (SDH)
Language : English
Default : No
Forced : No

Text #3
ID : 5
Format : UTF-8
Codec ID : S_TEXT/UTF8
Codec ID/Info : UTF-8 Plain Text
Duration : 1 h 25 min
Bit rate : 41 b/s
Count of elements : 492
Stream size : 25.9 KiB (0%)
Title : ???????
Language : Arabic
Default : No
Forced : No

Text #4
ID : 6
Format : UTF-8
Codec ID : S_TEXT/UTF8
Codec ID/Info : UTF-8 Plain Text
Duration : 1 h 25 min
Bit rate : 45 b/s
Count of elements : 472
Stream size : 28.7 KiB (0%)
Title : български
Language : Bulgarian
Default : No
Forced : No

Text #5
ID : 7
Format : UTF-8
Codec ID : S_TEXT/UTF8
Codec ID/Info : UTF-8 Plain Text
Duration : 1 h 25 min
Bit rate : 29 b/s
Count of elements : 484
Stream size : 18.3 KiB (0%)
Title : ?e?tina
Language : Czech
Default : No
Forced : No

Text #6
ID : 8
Format : UTF-8
Codec ID : S_TEXT/UTF8
Codec ID/Info : UTF-8 Plain Text
Duration : 1 h 25 min
Bit rate : 27 b/s
Count of elements : 451
Stream size : 17.1 KiB (0%)
Title : dansk
Language : Danish
Default : No
Forced : No

Text #7
ID : 9
Format : UTF-8
Codec ID : S_TEXT/UTF8
Codec ID/Info : UTF-8 Plain Text
Duration : 1 h 25 min
Bit rate : 29 b/s
Count of elements : 485
Stream size : 18.4 KiB (0%)
Title : Deutsch
Language : German
Default : No
Forced : No

Text #8
ID : 10
Format : UTF-8
Codec ID : S_TEXT/UTF8
Codec ID/Info : UTF-8 Plain Text
Duration : 1 h 25 min
Bit rate : 52 b/s
Count of elements : 482
Stream size : 33.2 KiB (0%)
Title : Ελληνικ?
Language : Greek
Default : No
Forced : No

Text #9
ID : 11
Format : UTF-8
Codec ID : S_TEXT/UTF8
Codec ID/Info : UTF-8 Plain Text
Duration : 1 h 25 min
Bit rate : 29 b/s
Count of elements : 483
Stream size : 18.7 KiB (0%)
Title : Espa?ol (Espa?a)
Language : Spanish
Default : No
Forced : No

Text #10
ID : 12
Format : UTF-8
Codec ID : S_TEXT/UTF8
Codec ID/Info : UTF-8 Plain Text
Duration : 1 h 25 min
Bit rate : 28 b/s
Count of elements : 486
Stream size : 17.8 KiB (0%)
Title : Espa?ol (Latinoamérica)
Language : Spanish
Default : No
Forced : No

Text #11
ID : 13
Format : UTF-8
Codec ID : S_TEXT/UTF8
Codec ID/Info : UTF-8 Plain Text
Duration : 1 h 25 min
Bit rate : 27 b/s
Count of elements : 467
Stream size : 17.5 KiB (0%)
Title : eesti
Language : Estonian
Default : No
Forced : No

Text #12
ID : 14
Format : UTF-8
Codec ID : S_TEXT/UTF8
Codec ID/Info : UTF-8 Plain Text
Duration : 1 h 25 min
Bit rate : 26 b/s
Count of elements : 483
Stream size : 16.8 KiB (0%)
Title : Suomi
Language : Finnish
Default : No
Forced : No

Text #13
ID : 15
Format : UTF-8
Codec ID : S_TEXT/UTF8
Codec ID/Info : UTF-8 Plain Text
Duration : 1 h 25 min
Bit rate : 30 b/s
Count of elements : 489
Stream size : 19.0 KiB (0%)
Title : Fran?ais (Canada)
Language : French
Default : No
Forced : No

Text #14
ID : 16
Format : UTF-8
Codec ID : S_TEXT/UTF8
Codec ID/Info : UTF-8 Plain Text
Duration : 1 h 25 min
Bit rate : 30 b/s
Count of elements : 489
Stream size : 19.0 KiB (0%)
Title : Fran?ais (France)
Language : French
Default : No
Forced : No

Text #15
ID : 17
Format : UTF-8
Codec ID : S_TEXT/UTF8
Codec ID/Info : UTF-8 Plain Text
Duration : 1 h 25 min
Bit rate : 39 b/s
Count of elements : 490
Stream size : 25.0 KiB (0%)
Title : ?????
Language : Hebrew
Default : No
Forced : No

Text #16
ID : 18
Format : UTF-8
Codec ID : S_TEXT/UTF8
Codec ID/Info : UTF-8 Plain Text
Duration : 1 h 25 min
Bit rate : 71 b/s
Count of elements : 493
Stream size : 44.8 KiB (0%)
Title : ??????
Language : Hindi
Default : No
Forced : No

Text #17
ID : 19
Format : UTF-8
Codec ID : S_TEXT/UTF8
Codec ID/Info : UTF-8 Plain Text
Duration : 1 h 25 min
Bit rate : 29 b/s
Count of elements : 481
Stream size : 18.3 KiB (0%)
Title : magyar
Language : Hungarian
Default : No
Forced : No

Text #18
ID : 20
Format : UTF-8
Codec ID : S_TEXT/UTF8
Codec ID/Info : UTF-8 Plain Text
Duration : 1 h 25 min
Bit rate : 29 b/s
Count of elements : 487
Stream size : 18.3 KiB (0%)
Title : Bahasa Indonesia
Language : Indonesian
Default : No
Forced : No

Text #19
ID : 21
Format : UTF-8
Codec ID : S_TEXT/UTF8
Codec ID/Info : UTF-8 Plain Text
Duration : 1 h 25 min
Bit rate : 26 b/s
Count of elements : 479
Stream size : 16.7 KiB (0%)
Title : Italiano
Language : Italian
Default : No
Forced : No

Text #20
ID : 22
Format : UTF-8
Codec ID : S_TEXT/UTF8
Codec ID/Info : UTF-8 Plain Text
Duration : 1 h 25 min
Bit rate : 27 b/s
Count of elements : 518
Stream size : 17.1 KiB (0%)
Title : 日本語
Language : Japanese
Default : No
Forced : No

Text #21
ID : 23
Format : UTF-8
Codec ID : S_TEXT/UTF8
Codec ID/Info : UTF-8 Plain Text
Duration : 1 h 25 min
Bit rate : 32 b/s
Count of elements : 493
Stream size : 20.4 KiB (0%)
Title : ???
Language : Korean
Default : No
Forced : No

Text #22
ID : 24
Format : UTF-8
Codec ID : S_TEXT/UTF8
Codec ID/Info : UTF-8 Plain Text
Duration : 1 h 25 min
Bit rate : 27 b/s
Count of elements : 486
Stream size : 17.5 KiB (0%)
Title : lietuvi?
Language : Lithuanian
Default : No
Forced : No

Text #23
ID : 25
Format : UTF-8
Codec ID : S_TEXT/UTF8
Codec ID/Info : UTF-8 Plain Text
Duration : 1 h 25 min
Bit rate : 30 b/s
Count of elements : 487
Stream size : 19.0 KiB (0%)
Title : latvie?u
Language : Latvian
Default : No
Forced : No

Text #24
ID : 26
Format : UTF-8
Codec ID : S_TEXT/UTF8
Codec ID/Info : UTF-8 Plain Text
Duration : 1 h 25 min
Bit rate : 29 b/s
Count of elements : 487
Stream size : 18.8 KiB (0%)
Title : Bahasa Melayu
Language : Malay
Default : No
Forced : No

Text #25
ID : 27
Format : UTF-8
Codec ID : S_TEXT/UTF8
Codec ID/Info : UTF-8 Plain Text
Duration : 1 h 25 min
Bit rate : 28 b/s
Count of elements : 465
Stream size : 17.8 KiB (0%)
Title : Nederlands
Language : Dutch
Default : No
Forced : No

Text #26
ID : 28
Format : UTF-8
Codec ID : S_TEXT/UTF8
Codec ID/Info : UTF-8 Plain Text
Duration : 1 h 25 min
Bit rate : 27 b/s
Count of elements : 484
Stream size : 17.0 KiB (0%)
Title : norsk
Language : Norwegian
Default : No
Forced : No

Text #27
ID : 29
Format : UTF-8
Codec ID : S_TEXT/UTF8
Codec ID/Info : UTF-8 Plain Text
Duration : 1 h 25 min
Bit rate : 28 b/s
Count of elements : 487
Stream size : 17.8 KiB (0%)
Title : polski
Language : Polish
Default : No
Forced : No

Text #28
ID : 30
Format : UTF-8
Codec ID : S_TEXT/UTF8
Codec ID/Info : UTF-8 Plain Text
Duration : 1 h 25 min
Bit rate : 29 b/s
Count of elements : 485
Stream size : 18.7 KiB (0%)
Title : Português
Language : Portuguese
Default : No
Forced : No

Text #29
ID : 31
Format : UTF-8
Codec ID : S_TEXT/UTF8
Codec ID/Info : UTF-8 Plain Text
Duration : 1 h 25 min
Bit rate : 29 b/s
Count of elements : 488
Stream size : 18.5 KiB (0%)
Title : Português (Brasil)
Language : Portuguese
Default : No
Forced : No

Text #30
ID : 32
Format : UTF-8
Codec ID : S_TEXT/UTF8
Codec ID/Info : UTF-8 Plain Text
Duration : 1 h 25 min
Bit rate : 47 b/s
Count of elements : 491
Stream size : 29.7 KiB (0%)
Title : Русский
Language : Russian
Default : No
Forced : No

Text #31
ID : 33
Format : UTF-8
Codec ID : S_TEXT/UTF8
Codec ID/Info : UTF-8 Plain Text
Duration : 1 h 25 min
Bit rate : 27 b/s
Count of elements : 486
Stream size : 17.5 KiB (0%)
Title : Sloven?ina
Language : Slovak
Default : No
Forced : No

Text #32
ID : 34
Format : UTF-8
Codec ID : S_TEXT/UTF8
Codec ID/Info : UTF-8 Plain Text
Duration : 1 h 25 min
Bit rate : 24 b/s
Count of elements : 487
Stream size : 15.6 KiB (0%)
Title : sloven??ina
Language : Slovenian
Default : No
Forced : No

Text #33
ID : 35
Format : UTF-8
Codec ID : S_TEXT/UTF8
Codec ID/Info : UTF-8 Plain Text
Duration : 1 h 25 min
Bit rate : 27 b/s
Count of elements : 488
Stream size : 16.9 KiB (0%)
Title : Svenska
Language : Swedish
Default : No
Forced : No

Text #34
ID : 36
Format : UTF-8
Codec ID : S_TEXT/UTF8
Codec ID/Info : UTF-8 Plain Text
Duration : 1 h 25 min
Bit rate : 85 b/s
Count of elements : 492
Stream size : 53.4 KiB (0%)
Title : ?????
Language : Tamil
Default : No
Forced : No

Text #35
ID : 37
Format : UTF-8
Codec ID : S_TEXT/UTF8
Codec ID/Info : UTF-8 Plain Text
Duration : 1 h 25 min
Bit rate : 80 b/s
Count of elements : 491
Stream size : 50.4 KiB (0%)
Title : ??????
Language : Telugu
Default : No
Forced : No

Text #36
ID : 38
Format : UTF-8
Codec ID : S_TEXT/UTF8
Codec ID/Info : UTF-8 Plain Text
Duration : 1 h 25 min
Bit rate : 77 b/s
Count of elements : 490
Stream size : 48.7 KiB (0%)
Title : ???
Language : Thai
Default : No
Forced : No

Text #37
ID : 39
Format : UTF-8
Codec ID : S_TEXT/UTF8
Codec ID/Info : UTF-8 Plain Text
Duration : 1 h 25 min
Bit rate : 29 b/s
Count of elements : 488
Stream size : 18.5 KiB (0%)
Title : Türk?e
Language : Turkish
Default : No
Forced : No

Text #38
ID : 40
Format : UTF-8
Codec ID : S_TEXT/UTF8
Codec ID/Info : UTF-8 Plain Text
Duration : 1 h 25 min
Bit rate : 47 b/s
Count of elements : 493
Stream size : 29.9 KiB (0%)
Title : укра?нська
Language : Ukrainian
Default : No
Forced : No

Text #39
ID : 41
Format : UTF-8
Codec ID : S_TEXT/UTF8
Codec ID/Info : UTF-8 Plain Text
Duration : 1 h 25 min
Bit rate : 38 b/s
Count of elements : 491
Stream size : 24.2 KiB (0%)
Title : Ti?ng Vi?t
Language : Vietnamese
Default : No
Forced : No

Text #40
ID : 42
Format : UTF-8
Codec ID : S_TEXT/UTF8
Codec ID/Info : UTF-8 Plain Text
Duration : 1 h 25 min
Bit rate : 27 b/s
Count of elements : 493
Stream size : 17.5 KiB (0%)
Title : 廣東話
Language : Chinese
Default : No
Forced : No

Text #41
ID : 43
Format : UTF-8
Codec ID : S_TEXT/UTF8
Codec ID/Info : UTF-8 Plain Text
Duration : 1 h 25 min
Bit rate : 25 b/s
Count of elements : 493
Stream size : 16.2 KiB (0%)
Title : 中文(繁體)
Language : Chinese
Default : No
Forced : No

Text #42
ID : 44
Format : UTF-8
Codec ID : S_TEXT/UTF8
Codec ID/Info : UTF-8 Plain Text
Duration : 1 h 25 min
Bit rate : 26 b/s
Count of elements : 491
Stream size : 16.6 KiB (0%)
Title : 中文(简体)
Language : Chinese
Default : No
Forced : No


00764793785122631153_thumb.jpg 96582375280978080183_thumb.jpg 59950286355070147847_thumb.jpg


均为内封中字版本

游客,如果您要查看本帖隐藏内容请回复

游客,如果您要查看本帖隐藏内容请回复

游客,如果您要查看本帖隐藏内容请回复



.
.





回复

使用道具 举报

0

主题

1195

帖子

3395

积分

中级会员

Rank: 4

积分
3395
发表于 2021-1-1 09:58:43 | 显示全部楼层
回复 支持 反对

使用道具 举报

0

主题

3

帖子

21

积分

新手上路

Rank: 1

积分
21
发表于 2021-1-1 11:29:30 | 显示全部楼层
谢谢楼主分享的资源
回复 支持 反对

使用道具 举报

3

主题

1206

帖子

3448

积分

4K家园VIP

Rank: 9Rank: 9Rank: 9

积分
3448
发表于 2021-1-2 02:48:39 | 显示全部楼层
看起来好像不错的样子
回复 支持 反对

使用道具 举报

2

主题

1271

帖子

3665

积分

4K家园VIP

Rank: 9Rank: 9Rank: 9

积分
3665
发表于 2021-1-2 13:18:56 | 显示全部楼层
路过 帮顶 嘿嘿
回复 支持 反对

使用道具 举报

0

主题

1157

帖子

3317

积分

4K家园VIP

Rank: 9Rank: 9Rank: 9

积分
3317
发表于 2021-1-5 14:37:06 来自手机 | 显示全部楼层
very good
回复 支持 反对

使用道具 举报

0

主题

1

帖子

10

积分

新手上路

Rank: 1

积分
10
发表于 2021-1-5 19:55:53 | 显示全部楼层
6666666
回复

使用道具 举报

0

主题

1152

帖子

3302

积分

4K家园VIP

Rank: 9Rank: 9Rank: 9

积分
3302
发表于 2021-1-10 19:50:17 | 显示全部楼层
好帖必须得顶起
回复 支持 反对

使用道具 举报

您需要登录后才可以回帖 登录 | 立即注册

本版积分规则

精彩图文
Archiver|手机版|TAG|Sitemap|新帖|专题|联系我们:邮箱: 4kjia.com@gmail.com   

4k家园   ©2019