[4K记录视频] 2020 纪录片《俯瞰大西洋的戈德里维》 4K高清下载/大小400MB

[复制链接]

2142

主题

2417

帖子

1万

积分

超级版主

Rank: 8Rank: 8

积分
19809
 楼主| 发表于 4 天前 | 显示全部楼层 |阅读模式
本帖最后由 叽里呱啦 于 2021-1-12 20:51 编辑

4K 戈德里维的冲浪者.mkv_20210105_193937.331.jpg 4K 戈德里维的冲浪者.mkv_20210105_193943.643.jpg 4K 戈德里维的冲浪者.mkv_20210105_193949.051.jpg 4K 戈德里维的冲浪者.mkv_20210105_193959.635.jpg

标题: Godrevy
原著: Godrevy
发行年代: 2020
国家/地区:英国
类型: 种类
导演: Breanek电影

简介:

       Godrevy是圣艾夫斯湾东侧的一个地区,俯瞰大西洋。它在冲浪者和徒步旅行者中都很受欢迎。

General
Complete name                  : 4K 戈德里维的冲浪者.mkv
Format                         : Matroska
Format version                 : Version 4
File size                      : 401 MiB
Duration                       : 2 min 28 s
Overall bit rate               : 22.7 Mb/s
Encoded date                   : UTC 2020-12-27 19:22:15
Writing application            : mkvmerge v51.0.0 ('I Wish') 64-bit
Writing library                : libebml v1.4.0 + libmatroska v1.6.2

Video
ID                             : 1
Format                         : AVC
Format/Info                    : Advanced Video Codec
Format profile                 : High@L5.2
Format settings                : CABAC / 5 Ref Frames
Format settings, CABAC         : Yes
Format settings, Reference fra : 5 frames
Codec ID                       : V_MPEG4/ISO/AVC
Duration                       : 2 min 28 s
Bit rate                       : 22.4 Mb/s
Width                          : 3 840 pixels
Height                         : 2 160 pixels
Display aspect ratio           : 16:9
Frame rate mode                : Constant
Frame rate                     : 30.000 FPS
Color space                    : YUV
Chroma subsampling             : 4:2:0
Bit depth                      : 8 bits
Scan type                      : Progressive
Bits/(Pixel*Frame)             : 0.090
Stream size                    : 396 MiB (99%)
Writing library                : x264 core 161 r10 db0d417
Encoding settings              : cabac=1 / ref=5 / deblock=1:0:0 / analyse=0x3:0x113 / me=hex / subme=8 / psy=1 / psy_rd=1.00:0.00 / mixed_ref=1 / me_range=16 / chroma_me=1 / trellis=2 / 8x8dct=1 / cqm=0 / deadzone=21,11 / fast_pskip=1 / chroma_qp_offset=-2 / threads=48 / lookahead_threads=8 / sliced_threads=0 / nr=0 / decimate=1 / interlaced=0 / bluray_compat=0 / stitchable=1 / constrained_intra=0 / bframes=3 / b_pyramid=2 / b_adapt=2 / b_bias=0 / direct=3 / weightb=1 / open_gop=0 / weightp=2 / keyint=infinite / keyint_min=30 / scenecut=40 / intra_refresh=0 / rc_lookahead=50 / rc=crf / mbtree=1 / crf=20.0 / qcomp=0.60 / qpmin=5 / qpmax=69 / qpstep=4 / vbv_maxrate=24200 / vbv_bufsize=66000 / crf_max=0.0 / nal_hrd=none / filler=0 / ip_ratio=1.40 / aq=1:1.00
Default                        : Yes
Forced                         : No
Color range                    : Limited
Color primaries                : BT.709
Transfer characteristics       : BT.709
Matrix coefficients            : BT.709

Audio
ID                             : 2
Format                         : AAC LC
Format/Info                    : Advanced Audio Codec Low Complexity
Codec ID                       : A_AAC-2
Duration                       : 2 min 28 s
Bit rate                       : 253 kb/s
Channel(s)                     : 2 channels
Channel layout                 : L R
Sampling rate                  : 48.0 kHz
Frame rate                     : 46.875 FPS (1024 SPF)
Compression mode               : Lossy
Stream size                    : 4.47 MiB (1%)
Default                        : Yes
Forced                         : No




游客,如果您要查看本帖隐藏内容请回复




.
回复

使用道具 举报

0

主题

987

帖子

2975

积分

4K家园VIP

Rank: 9Rank: 9Rank: 9

积分
2975
发表于 4 天前 | 显示全部楼层
前排,哇咔咔
回复 支持 反对

使用道具 举报

0

主题

4

帖子

15

积分

新手上路

Rank: 1

积分
15
发表于 4 天前 | 显示全部楼层
看看吧!!!!!!!!!!!
回复

使用道具 举报

0

主题

1285

帖子

3667

积分

4K家园VIP

Rank: 9Rank: 9Rank: 9

积分
3667
发表于 昨天 03:32 | 显示全部楼层
支持一下楼主,顶起来
回复 支持 反对

使用道具 举报

0

主题

1

帖子

6

积分

新手上路

Rank: 1

积分
6
发表于 昨天 03:57 来自手机 | 显示全部楼层
快快快
回复

使用道具 举报

0

主题

2

帖子

9

积分

新手上路

Rank: 1

积分
9
发表于 昨天 17:21 | 显示全部楼层
看看
回复

使用道具 举报

0

主题

2029

帖子

7329

积分

4K家园VIP

Rank: 9Rank: 9Rank: 9

积分
7329
发表于 昨天 18:28 | 显示全部楼层
太好啦&萬分感謝版主的無私發佈分享%
回复 支持 反对

使用道具 举报

您需要登录后才可以回帖 登录 | 立即注册

本版积分规则

精彩图文
Archiver|手机版|TAG|Sitemap|新帖|专题|联系我们:邮箱: 4kjia.com@gmail.com   

4k家园   ©2019