2020 ONEWE - 内存中的书4k [2160P/MP4/232MB]

[复制链接]

2210

主题

2494

帖子

2万

积分

超级版主

Rank: 8Rank: 8

积分
20509
 楼主| 发表于 2021-1-15 10:30:00 | 显示全部楼层 |阅读模式
2020 ONEWE - 内存中的书4k.mp4_20210107_203507.356.jpg 2020 ONEWE - 内存中的书4k.mp4_20210107_203518.303.jpg 2020 ONEWE - 内存中的书4k.mp4_20210107_203546.307.jpg 2020 ONEWE - 内存中的书4k.mp4_20210107_203557.884.jpg
****此区域为收费内容****    需支付 15 金币后可查看立即购买


General
Complete name                  : E:\4KMV\2020 ONEWE - 内存中的书4k.mp4
Format                         : MPEG-4
Format profile                 : Base Media
Codec ID                       : isom (isom/iso2/avc1/mp41)
File size                      : 233 MiB
Duration                       : 4 min 3 s
Overall bit rate               : 8 024 kb/s
Writing application            : Lavf58.12.100
exvr                           : EX1.8.2(C1.0.9)

Video
ID                             : 1
Format                         : AVC
Format/Info                    : Advanced Video Codec
Format profile                 : High@L5.1
Format settings                : CABAC / 4 Ref Frames
Format settings, CABAC         : Yes
Format settings, Reference fra : 4 frames
Codec ID                       : avc1
Codec ID/Info                  : Advanced Video Coding
Duration                       : 4 min 3 s
Bit rate                       : 7 829 kb/s
Width                          : 3 840 pixels
Height                         : 2 160 pixels
Display aspect ratio           : 16:9
Frame rate mode                : Constant
Frame rate                     : 23.976 (23976/1000) FPS
Color space                    : YUV
Chroma subsampling             : 4:2:0
Bit depth                      : 8 bits
Scan type                      : Progressive
Bits/(Pixel*Frame)             : 0.039
Stream size                    : 227 MiB (98%)
Color range                    : Limited
Color primaries                : BT.709
Transfer characteristics       : BT.709
Matrix coefficients            : BT.709
Codec configuration box        : avcC

Audio
ID                             : 2
Format                         : AAC LC
Format/Info                    : Advanced Audio Codec Low Complexity
Codec ID                       : mp4a-40-2
Duration                       : 4 min 3 s
Bit rate mode                  : Constant
Bit rate                       : 192 kb/s
Channel(s)                     : 2 channels
Channel layout                 : L R
Sampling rate                  : 48.0 kHz
Frame rate                     : 46.875 FPS (1024 SPF)
Compression mode               : Lossy
Stream size                    : 5.57 MiB (2%)
Default                        : Yes
Alternate group                : 1



网盘下载失效不补:链接: https://pan.baidu.com/s/18zIL8SVmaDNMXuJYDQSUpQ 提取码: ayrk



回复

使用道具 举报

4

主题

1065

帖子

3223

积分

4K家园VIP

Rank: 9Rank: 9Rank: 9

积分
3223
发表于 2021-1-15 10:30:06 来自手机 | 显示全部楼层
楼猪V5啊
回复 支持 反对

使用道具 举报

36

主题

1248

帖子

3564

积分

4K家园VIP

Rank: 9Rank: 9Rank: 9

积分
3564
发表于 2021-1-17 00:24:16 | 显示全部楼层
在撸一遍。。。
回复 支持 反对

使用道具 举报

197

主题

1541

帖子

4179

积分

4K家园VIP

Rank: 9Rank: 9Rank: 9

积分
4179
发表于 2021-1-18 03:25:57 | 显示全部楼层
看帖要回,回帖才健康,在踩踩,楼主辛苦了!
回复 支持 反对

使用道具 举报

2

主题

1173

帖子

3541

积分

4K家园VIP

Rank: 9Rank: 9Rank: 9

积分
3541
发表于 2021-1-26 03:08:51 | 显示全部楼层
沙发???
回复 支持 反对

使用道具 举报

0

主题

1160

帖子

3500

积分

4K家园VIP

Rank: 9Rank: 9Rank: 9

积分
3500
发表于 2021-1-26 12:02:13 | 显示全部楼层
出4K版啦,下个看看
回复 支持 反对

使用道具 举报

您需要登录后才可以回帖 登录 | 立即注册

本版积分规则

精彩图文
Archiver|手机版|TAG|Sitemap|新帖|专题|联系我们:邮箱: 4kjia.com@gmail.com   

4k家园   ©2019