2020 Stray Kids - 后门(臭虫)4k [2160P/MP4/501MB]

[复制链接]

2210

主题

2494

帖子

2万

积分

超级版主

Rank: 8Rank: 8

积分
20518
 楼主| 发表于 2021-1-20 10:30:00 | 显示全部楼层 |阅读模式
2020 Stray Kids - 后门(臭虫).mp4_20210116_211000.083.jpg 2020 Stray Kids - 后门(臭虫).mp4_20210116_211031.010.jpg 2020 Stray Kids - 后门(臭虫).mp4_20210116_211040.858.jpg 2020 Stray Kids - 后门(臭虫).mp4_20210116_211059.929.jpg


General
Complete name                  : 4KMV\2020 Stray Kids - 后门(臭虫).mp4
Format                         : MPEG-4
Format profile                 : Base Media
Codec ID                       : isom (isom/iso2/mp41)
File size                      : 501 MiB
Duration                       : 3 min 37 s
Overall bit rate               : 19.3 Mb/s
Writing application            : Lavf57.25.100

Video
ID                             : 1
Format                         : HEVC
Format/Info                    : High Efficiency Video Coding
Format profile                 : Main@L5@Main
Codec ID                       : hev1
Codec ID/Info                  : High Efficiency Video Coding
Duration                       : 3 min 37 s
Bit rate                       : 19.2 Mb/s
Width                          : 4 096 pixels
Height                         : 1 716 pixels
Display aspect ratio           : 2.40:1
Frame rate mode                : Constant
Frame rate                     : 23.976 (24000/1001) FPS
Color space                    : YUV
Chroma subsampling             : 4:2:0
Bit depth                      : 8 bits
Scan type                      : Progressive
Bits/(Pixel*Frame)             : 0.114
Stream size                    : 496 MiB (99%)
Color range                    : Limited
Color primaries                : BT.709
Matrix coefficients            : BT.709
Codec configuration box        : hvcC

Audio
ID                             : 2
Format                         : AAC LC
Format/Info                    : Advanced Audio Codec Low Complexity
Codec ID                       : mp4a-40-2
Duration                       : 3 min 37 s
Duration_LastFrame             : -20 ms
Bit rate mode                  : Constant
Bit rate                       : 174 kb/s
Channel(s)                     : 2 channels
Channel layout                 : L R
Sampling rate                  : 48.0 kHz
Frame rate                     : 46.875 FPS (1024 SPF)
Compression mode               : Lossy
Stream size                    : 4.51 MiB (1%)
Default                        : Yes
Alternate group                : 1



网盘下载失效不补:链接: https://pan.baidu.com/s/1Ve4Uu-20k-2YOrTXOhep4Q 提取码:
****此区域为收费内容****    需支付 15 金币后可查看立即购买



.
回复

使用道具 举报

45

主题

1345

帖子

3877

积分

4K家园VIP

Rank: 9Rank: 9Rank: 9

积分
3877
发表于 2021-1-20 10:30:22 | 显示全部楼层
你们要是有4K资源记得分享,别小气
回复 支持 反对

使用道具 举报

50

主题

1405

帖子

4025

积分

4K家园VIP

Rank: 9Rank: 9Rank: 9

积分
4025
发表于 2021-1-21 12:58:17 来自手机 | 显示全部楼层
支持支持再支持
回复 支持 反对

使用道具 举报

39

主题

1348

帖子

3836

积分

4K家园VIP

Rank: 9Rank: 9Rank: 9

积分
3836
发表于 2021-1-22 18:03:40 来自手机 | 显示全部楼层
前排支持下了哦~
回复 支持 反对

使用道具 举报

0

主题

314

帖子

1083

积分

注册会员

Rank: 2

积分
1083
发表于 2021-1-22 19:55:08 | 显示全部楼层
支持支持再支持
回复 支持 反对

使用道具 举报

2

主题

1029

帖子

3107

积分

4K家园VIP

Rank: 9Rank: 9Rank: 9

积分
3107
发表于 2021-1-24 16:12:45 | 显示全部楼层
回复 支持 反对

使用道具 举报

1

主题

1379

帖子

3985

积分

4K家园VIP

Rank: 9Rank: 9Rank: 9

积分
3985
发表于 2021-1-26 06:16:09 | 显示全部楼层
秀起来~
回复 支持 反对

使用道具 举报

0

主题

314

帖子

1083

积分

注册会员

Rank: 2

积分
1083
发表于 2021-1-26 17:39:23 | 显示全部楼层
谢谢楼主分享
回复 支持 反对

使用道具 举报

您需要登录后才可以回帖 登录 | 立即注册

本版积分规则

精彩图文
Archiver|手机版|TAG|Sitemap|新帖|专题|联系我们:邮箱: 4kjia.com@gmail.com   

4k家园   ©2019