2020 UP10TION-Destiny(心脏病发作版本)4K [2160P/MP4/365MB]

[复制链接]

2210

主题

2494

帖子

2万

积分

超级版主

Rank: 8Rank: 8

积分
20518
 楼主| 发表于 2021-1-21 10:30:00 | 显示全部楼层 |阅读模式
2020 UP10TION-Destiny(心脏病发作版本)4K.mp4_20210116_211355.888.jpg 2020 UP10TION-Destiny(心脏病发作版本)4K.mp4_20210116_211404.865.jpg 2020 UP10TION-Destiny(心脏病发作版本)4K.mp4_20210116_211409.850.jpg 2020 UP10TION-Destiny(心脏病发作版本)4K.mp4_20210116_211427.633.jpg

General
Complete name                  : 2020 UP10TION-Destiny(心脏病发作版本)4K.mp4
Format                         : MPEG-4
Format profile                 : Base Media
Codec ID                       : isom (isom/iso2/avc1/mp41)
File size                      : 365 MiB
Duration                       : 3 min 5 s
Overall bit rate               : 16.5 Mb/s
Writing application            : Lavf58.12.100
exvr                           : EX1.8.2(C1.0.9)

Video
ID                             : 1
Format                         : AVC
Format/Info                    : Advanced Video Codec
Format profile                 : High@L5.1
Format settings                : CABAC / 4 Ref Frames
Format settings, CABAC         : Yes
Format settings, Reference fra : 4 frames
Codec ID                       : avc1
Codec ID/Info                  : Advanced Video Coding
Duration                       : 3 min 5 s
Bit rate                       : 16.4 Mb/s
Width                          : 3 840 pixels
Height                         : 2 160 pixels
Display aspect ratio           : 16:9
Frame rate mode                : Constant
Frame rate                     : 23.976 (23976/1000) FPS
Color space                    : YUV
Chroma subsampling             : 4:2:0
Bit depth                      : 8 bits
Scan type                      : Progressive
Bits/(Pixel*Frame)             : 0.082
Stream size                    : 361 MiB (99%)
Color range                    : Limited
Color primaries                : BT.709
Transfer characteristics       : BT.709
Matrix coefficients            : BT.709
Codec configuration box        : avcC

Audio
ID                             : 2
Format                         : AAC LC
Format/Info                    : Advanced Audio Codec Low Complexity
Codec ID                       : mp4a-40-2
Duration                       : 3 min 5 s
Duration_LastFrame             : -1 ms
Bit rate mode                  : Constant
Bit rate                       : 192 kb/s
Channel(s)                     : 2 channels
Channel layout                 : L R
Sampling rate                  : 48.0 kHz
Frame rate                     : 46.875 FPS (1024 SPF)
Compression mode               : Lossy
Stream size                    : 4.24 MiB (1%)
Default                        : Yes
Alternate group                : 1




网盘下载失效不补:链接: https://pan.baidu.com/s/1DUqVmOsHdbILMwQLRYz6hg 提取码:
****此区域为收费内容****    需支付 15 金币后可查看立即购买



.
回复

使用道具 举报

2

主题

1037

帖子

3127

积分

4K家园VIP

Rank: 9Rank: 9Rank: 9

积分
3127
发表于 2021-1-21 10:30:11 | 显示全部楼层
嘘,低调。
回复 支持 反对

使用道具 举报

39

主题

1280

帖子

3600

积分

4K家园VIP

Rank: 9Rank: 9Rank: 9

积分
3600
发表于 2021-1-21 19:06:18 | 显示全部楼层
为保住菊花,这个一定得回复!
回复 支持 反对

使用道具 举报

40

主题

1352

帖子

3864

积分

4K家园VIP

Rank: 9Rank: 9Rank: 9

积分
3864
发表于 2021-1-22 03:18:57 | 显示全部楼层
垃圾
回复 支持 反对

使用道具 举报

54

主题

1359

帖子

3907

积分

4K家园VIP

Rank: 9Rank: 9Rank: 9

积分
3907
发表于 2021-1-22 14:49:08 | 显示全部楼层
分享的不错,希望楼主继续分享
回复 支持 反对

使用道具 举报

0

主题

319

帖子

1101

积分

注册会员

Rank: 2

积分
1101
发表于 2021-1-22 19:56:15 | 显示全部楼层
感谢楼主分享好电影
回复 支持 反对

使用道具 举报

2

主题

1212

帖子

3480

积分

4K家园VIP

Rank: 9Rank: 9Rank: 9

积分
3480
发表于 2021-1-23 14:03:08 来自手机 | 显示全部楼层
顶起出售广告位
回复 支持 反对

使用道具 举报

您需要登录后才可以回帖 登录 | 立即注册

本版积分规则

精彩图文
Archiver|手机版|TAG|Sitemap|新帖|专题|联系我们:邮箱: 4kjia.com@gmail.com   

4k家园   ©2019