[4K电影] [4K首发资源]《爬坡人生/婊兄弟上路(台)》4K高清下载/12.48GB

[复制链接]

319

主题

329

帖子

3391

积分

4K家园VIP

Rank: 9Rank: 9Rank: 9

积分
3391
 楼主| 发表于 2021-1-19 19:17:38 | 显示全部楼层 |阅读模式
本帖最后由 最爱4K哟 于 2021-1-19 20:36 编辑

QQ图片20210119194145_meitu_1.jpg

◎译名:爬坡人生/ Wspinaczka /婊兄弟上路(台)/跨年之恋
◎片名:The Climb
◎年代:2019
◎产地:美国
◎类别:剧情/喜剧
◎语言:英语
◎上映日期:2019-05- 17(戛纳电影节)/ 2020-11-13(美国)
◎IMDb评分7/10来自914位用户
◎IMDb链接:https://www.imdb.com/title/tt8637440/
◎豆瓣评分:7.2 / 10来自75位用户
◎豆瓣链接:https://movie.douban.com/subject/33415963/
◎片长:95分钟
◎导演:迈克尔·安盖洛·科维诺迈克尔·安吉洛·科维诺
◎编剧:迈克尔·安盖洛·科维诺迈克尔Angelo Covino /凯尔·马文Kyle Marvin
◎主演:迈克尔·安盖洛·科维诺Michael Angelo Covino
      凯尔·马文Kyle Marvin
      盖尔·兰金Gayle Rankin
      朱迪丝·戈德雷什JudithGodrèche
      塔利亚·巴尔萨姆·塔莉亚
      ·巴尔萨姆·乔治·温迪特
      丹妮拉·科维诺Daniella Covino
      伊登·马林Eden Malyn
      梅雷迪思·霍尔兹曼Meredith Holzman
      托德·巴里Todd Barry
      吉娜·威尔德Zina Wilde
      桑德拉·詹姆斯·桑德拉·
      詹姆斯克里斯·阿韦迪西安·克里斯
      ·阿迪迪斯·
      罗丝·玛丽·霍华德·罗斯玛丽·霍华德·阿德里安·M·蒙波因特·阿德里安·M·莫姆波因特
      ·汤姆·斯特拉特福汤姆·斯特拉特福
      ·亚历山大·布莱斯



◎剧情简介

  本片由迈克尔·安盖洛·科维诺自导自演,讲述了两个人在多年的欢笑,心碎和愤怒中,经历了一段动荡而又持久的关系。

◎获奖情况

  第72届戛纳电影节(2019)
  一种关注单元一种关注
  奖(提名)迈克尔·安盖洛·科维诺一种关注单元评委会“心动”奖迈克尔·安盖洛·科维诺

  第35届美国独立精神奖?(2020)
  最佳处女作(提名)

General

Complete name                  : The.Climb.2020.WEB-DL.2160p.HDR.seleZen.mkv
Format                         : Matroska
Format version                 : Version 4
File size                      : 12.5 GiB
Duration                       : 1 h 37 min
Overall bit rate               : 18.3 Mb/s
Movie name                     : The Climb 2019 from seleZen
Encoded date                   : UTC 2021-01-19 08:44:30
Writing application            : mkvmerge v52.0.0 ('Secret For The Mad') 64-bit
Writing library                : libebml v1.4.1 + libmatroska v1.6.2

Video
ID                             : 1
Format                         : HEVC
Format/Info                    : High Efficiency Video Coding
Format profile                 : Main 10@L5.1@Main
HDR format                     : SMPTE ST 2086, HDR10 compatible
Codec ID                       : V_MPEGH/ISO/HEVC
Duration                       : 1 h 37 min
Bit rate                       : 17.6 Mb/s
Width                          : 3 840 pixels
Height                         : 2 160 pixels
Display aspect ratio           : 16:9
Frame rate mode                : Constant
Frame rate                     : 23.976 (24000/1001) FPS
Original frame rate            : 23.976 (23976/1000) FPS
Color space                    : YUV
Chroma subsampling             : 4:2:0
Bit depth                      : 10 bits
Bits/(Pixel*Frame)             : 0.089
Stream size                    : 12.0 GiB (96%)
Writing library                : x265 3.0_RC+11-72188bd2f034:[Linux][GCC 4.9.2][64 bit] 10bit
Encoding settings              : cpuid=1111039 / frame-threads=3 / wpp / no-pmode / no-pme / no-psnr / no-ssim / log-level=2 / input-csp=1 / input-res=3840x2160 / interlace=0 / total-frames=0 / level-idc=51 / high-tier=1 / uhd-bd=0 / ref=4 / no-allow-non-conformance / repeat-headers / annexb / no-aud / no-hrd / info / hash=0 / no-temporal-layers / no-open-gop / min-keyint=24 / keyint=48 / gop-lookahead=0 / bframes=3 / b-adapt=0 / no-b-pyramid / bframe-bias=0 / rc-lookahead=15 / lookahead-slices=8 / scenecut=0 / radl=0 / no-splice / no-intra-refresh / ctu=64 / min-cu-size=8 / no-rect / no-amp / max-tu-size=32 / tu-inter-depth=1 / tu-intra-depth=1 / limit-tu=0 / rdoq-level=0 / dynamic-rd=0.00 / no-ssim-rd / signhide / no-tskip / nr-intra=0 / nr-inter=0 / no-constrained-intra / strong-intra-smoothing / max-merge=2 / limit-refs=3 / no-limit-modes / me=1 / subme=2 / merange=57 / temporal-mvp / weightp / no-weightb / no-analyze-src-pics / deblock=0:0 / sao / no-sao-non-deblock / rd=2 / no-early-skip / rskip / fast-intra / no-tskip-fast / no-cu-lossless / no-b-intra / no-splitrd-skip / rdpenalty=0 / psy-rd=2.00 / psy-rdoq=0.00 / no-rd-refine / no-lossless / cbqpoffs=0 / crqpoffs=0 / rc=cbr / bitrate=18000 / qcomp=0.60 / qpstep=4 / stats-write=0 / stats-read=0 / vbv-maxrate=18000 / vbv-bufsize=36000 / vbv-init=0.9 / ipratio=1.40 / pbratio=1.30 / aq-mode=2 / aq-strength=1.00 / cutree / zone-count=0 / no-strict-cbr / qg-size=32 / no-rc-grain / qpmax=69 / qpmin=0 / no-const-vbv / sar=1 / overscan=0 / videoformat=5 / range=0 / colorprim=9 / transfer=16 / colormatrix=9 / chromaloc=0 / display-window=0 / master-display=G(8500,39850)B(6550,2300)R(35400,14600)WP(15635,16450)L(10000000,1) / max-cll=997,76 / min-luma=0 / max-luma=1023 / log2-max-poc-lsb=8 / vui-timing-info / vui-hrd-info / slices=1 / no-opt-qp-pps / no-opt-ref-list-length-pps / no-multi-pass-opt-rps / scenecut-bias=0.05 / no-opt-cu-delta-qp / no-aq-motion / hdr / no-hdr-opt / no-dhdr10-opt / no-idr-recovery-sei / analysis-reuse-level=5 / scale-factor=0 / refine-intra=0 / refine-inter=0 / refine-mv=0 / refine-ctu-distortion=0 / no-limit-sao / ctu-info=0 / no-lowpass-dct / refine-analysis-type=0 / copy-pic=1 / max-ausize-factor=1.0 / no-dynamic-refine / no-single-sei / no-hevc-aq / qp-adaptation-range=1.00
Language                       : English
Default                        : Yes
Forced                         : No
Color range                    : Limited
Color primaries                : BT.2020
Transfer characteristics       : PQ
Matrix coefficients            : BT.2020 non-constant
Mastering display color primar : BT.2020
Mastering display luminance    : min: 0.0001 cd/m2, max: 1000 cd/m2
Maximum Content Light Level    : 997 cd/m2
Maximum Frame-Average Light Le : 76 cd/m2

Audio #1
ID                             : 2
Format                         : AC-3
Format/Info                    : Audio Coding 3
Commercial name                : Dolby Digital
Codec ID                       : A_AC3
Duration                       : 1 h 37 min
Bit rate mode                  : Constant
Bit rate                       : 384 kb/s
Channel(s)                     : 6 channels
Channel layout                 : L R C LFE Ls Rs
Sampling rate                  : 48.0 kHz
Frame rate                     : 31.250 FPS (1536 SPF)
Compression mode               : Lossy
Stream size                    : 268 MiB (2%)
Title                          : iTunes
Language                       : Russian
Service kind                   : Complete Main
Default                        : Yes
Forced                         : Yes

Audio #2
ID                             : 3
Format                         : E-AC-3
Format/Info                    : Enhanced AC-3
Commercial name                : Dolby Digital Plus
Codec ID                       : A_EAC3
Duration                       : 1 h 37 min
Bit rate mode                  : Constant
Bit rate                       : 256 kb/s
Channel(s)                     : 6 channels
Channel layout                 : L R C LFE Ls Rs
Sampling rate                  : 48.0 kHz
Frame rate                     : 31.250 FPS (1536 SPF)
Compression mode               : Lossy
Stream size                    : 179 MiB (1%)
Title                          : Original
Language                       : English
Service kind                   : Complete Main
Default                        : No
Forced                         : No

Text #1
ID                             : 4
Format                         : UTF-8
Codec ID                       : S_TEXT/UTF8
Codec ID/Info                  : UTF-8 Plain Text
Duration                       : 1 h 36 min
Bit rate                       : 0 b/s
Count of elements              : 11
Stream size                    : 303 Bytes (0%)
Title                          : Forced
Language                       : Russian
Default                        : Yes
Forced                         : Yes

Text #2
ID                             : 5
Format                         : UTF-8
Codec ID                       : S_TEXT/UTF8
Codec ID/Info                  : UTF-8 Plain Text
Duration                       : 1 h 37 min
Bit rate                       : 93 b/s
Count of elements              : 1292
Stream size                    : 66.8 KiB (0%)
Title                          : Full
Language                       : Russian
Default                        : No
Forced                         : No

Text #3
ID                             : 6
Format                         : UTF-8
Codec ID                       : S_TEXT/UTF8
Codec ID/Info                  : UTF-8 Plain Text
Duration                       : 1 h 37 min
Bit rate                       : 99 b/s
Count of elements              : 1299
Stream size                    : 71.3 KiB (0%)
Title                          : Full
Language                       : Ukrainian
Default                        : No
Forced                         : No

Text #4
ID                             : 7
Format                         : UTF-8
Codec ID                       : S_TEXT/UTF8
Codec ID/Info                  : UTF-8 Plain Text
Duration                       : 1 h 33 min
Bit rate                       : 63 b/s
Count of elements              : 1500
Stream size                    : 43.8 KiB (0%)
Language                       : English
Default                        : No
Forced                         : No

The.Climb.2020.WEB-DL.2160p.HDR.seleZen.mkv_20210119_203119.194.jpg The.Climb.2020.WEB-DL.2160p.HDR.seleZen.mkv_20210119_203215.146.jpg The.Climb.2020.WEB-DL.2160p.HDR.seleZen.mkv_20210119_203346.746.jpg The.Climb.2020.WEB-DL.2160p.HDR.seleZen.mkv_20210119_203223.866.jpg The.Climb.2020.WEB-DL.2160p.HDR.seleZen.mkv_20210119_203413.099.jpg The.Climb.2020.WEB-DL.2160p.HDR.seleZen.mkv_20210119_203242.554.jpg


游客,如果您要查看本帖隐藏内容请回复



.
回复

使用道具 举报

0

主题

1239

帖子

3569

积分

4K家园VIP

Rank: 9Rank: 9Rank: 9

积分
3569
发表于 2021-1-19 19:18:01 | 显示全部楼层
占坑编辑ing
回复 支持 反对

使用道具 举报

40

主题

1389

帖子

3957

积分

4K家园VIP

Rank: 9Rank: 9Rank: 9

积分
3957
发表于 2021-1-20 14:37:32 | 显示全部楼层
哈哈,我只看看不说话
回复 支持 反对

使用道具 举报

50

主题

1306

帖子

3728

积分

4K家园VIP

Rank: 9Rank: 9Rank: 9

积分
3728
发表于 2021-1-21 01:28:54 | 显示全部楼层
秀起来~
回复 支持 反对

使用道具 举报

1

主题

1180

帖子

3404

积分

4K家园VIP

Rank: 9Rank: 9Rank: 9

积分
3404
发表于 2021-1-21 04:03:02 来自手机 | 显示全部楼层
看起来好像不错的样子
回复 支持 反对

使用道具 举报

40

主题

1350

帖子

3852

积分

4K家园VIP

Rank: 9Rank: 9Rank: 9

积分
3852
发表于 2021-1-22 11:36:39 | 显示全部楼层
高手啊
回复 支持 反对

使用道具 举报

您需要登录后才可以回帖 登录 | 立即注册

本版积分规则

精彩图文
Archiver|手机版|TAG|Sitemap|新帖|专题|联系我们:邮箱: 4kjia.com@gmail.com   

4k家园   ©2019