[4K电影] 《太坏了/超级坏》4K高清下载/8.57GB

[复制链接]

309

主题

319

帖子

3305

积分

4K家园VIP

Rank: 9Rank: 9Rank: 9

积分
3305
 楼主| 发表于 2021-1-21 11:43:11 | 显示全部楼层 |阅读模式
本帖最后由 最爱4K哟 于 2021-1-26 14:40 编辑

QQ图片20210121113949.png

◎译  名 太坏了/超级坏
◎片  名 Superbad
◎年  代 2007
◎产  地 美国
◎类  别 喜剧
◎语  言 英语
◎上映日期 2007-08-17(美国)
◎豆瓣评分 6.8/10 from 18,622 users
◎豆瓣链接 https://movie.douban.com/subject/2059310/
◎片  长 113 分钟/119 分钟(unrated version)
◎导  演 格雷格·莫托拉 Greg Mottola
◎主  演 乔纳·希尔 Jonah Hill
      迈克尔·塞拉 Michael Cera
      克里斯托夫·梅兹-普莱瑟 Christopher Mintz-Plasse
      塞斯·罗根 Seth Rogen
      玛莎·麦萨克 Martha MacIsaac
      比尔·哈德尔 Bill Hader
      艾玛·斯通 Emma Stone
      劳伦·米勒 Lauren Miller


◎简  介


  塞斯(乔纳•希尔 饰)和埃文(迈克尔•塞拉饰)是一对不善交际、性格迥异的好朋友,二人即将高中毕业,对没有彼此的大学生活既焦虑又恐惧。
  一个周末,二人的“桃花运”来了,因为他们收到了一个请柬,邀请他们去参加一个几乎完全是由漂亮女孩们主办的舞会,条件是他们要提供舞会上所需的各种酒类。令人讨厌的朋友弗盖尔(克里斯托弗•米恩特兹•普莱斯 饰)也加入到他们的行列,还给自己弄了一个假身份证,取了“迈克•拉文”这样愚蠢的假名。
  舞会上,塞斯盯上了舞会的组织者茱尔斯,埃文看上了 与他一起上数学课的女孩贝卡,弗盖尔则选择了装扮刺激的妮科拉。
  然而一系列不幸的巧合将三个人带到了一个陌生的地方,还让他们与斯莱特和迈克尔斯警官发生了冲突。对于三个即将高中毕业的小伙子来说,这可能是他们经历的最可怕、最让人感到羞愧的一个夜晚,然而,也是一个值得他们回忆一辈子的夜晚。

General

Complete name                  :太坏了Superbad.2007.Theatrical.Cut.4K.MULTI.2160p.HDR.WEB.AC3.HEVC-DDR.mkv
Format                         : Matroska
Format version                 : Version 4
File size                      : 8.41 GiB
Duration                       : 1 h 53 min
Overall bit rate               : 10.6 Mb/s
Encoded date                   : UTC 2021-01-20 18:17:46
Writing application            : mkvmerge v51.0.0 ('I Wish') 64-bit
Writing library                : libebml v1.4.0 + libmatroska v1.6.2
IsTruncated                    : Yes

Video
ID                             : 1
Format                         : HEVC
Format/Info                    : High Efficiency Video Coding
Format profile                 : Main 10@L5.1@High
HDR format                     : SMPTE ST 2086, HDR10 compatible
Codec ID                       : V_MPEGH/ISO/HEVC
Duration                       : 1 h 53 min
Bit rate                       : 9 406 kb/s
Width                          : 3 840 pixels
Height                         : 2 072 pixels
Display aspect ratio           : 1.85:1
Frame rate mode                : Constant
Frame rate                     : 23.976 (24000/1001) FPS
Color space                    : YUV
Chroma subsampling             : 4:2:0
Bit depth                      : 10 bits
Bits/(Pixel*Frame)             : 0.049
Stream size                    : 7.43 GiB (88%)
Language                       : English
Default                        : Yes
Forced                         : No
Color range                    : Limited
Color primaries                : BT.2020
Transfer characteristics       : PQ
Matrix coefficients            : BT.2020 non-constant
Mastering display color primar : Display P3
Mastering display luminance    : min: 0.0001 cd/m2, max: 1000 cd/m2
Maximum Content Light Level    : 992 cd/m2
Maximum Frame-Average Light Le : 162 cd/m2

Audio #1
ID                             : 2
Format                         : E-AC-3
Format/Info                    : Enhanced AC-3
Commercial name                : Dolby Digital Plus
Codec ID                       : A_EAC3
Duration                       : 1 h 53 min
Bit rate mode                  : Constant
Bit rate                       : 640 kb/s
Channel(s)                     : 6 channels
Channel layout                 : L R C LFE Ls Rs
Sampling rate                  : 48.0 kHz
Frame rate                     : 31.250 FPS (1536 SPF)
Compression mode               : Lossy
Delay relative to video        : 251 ms
Stream size                    : 518 MiB (6%)
Title                          : EAC3 5.1
Language                       : English
Service kind                   : Complete Main
Default                        : No
Forced                         : No

Audio #2
ID                             : 3
Format                         : AC-3
Format/Info                    : Audio Coding 3
Commercial name                : Dolby Digital
Codec ID                       : A_AC3
Duration                       : 1 h 53 min
Bit rate mode                  : Constant
Bit rate                       : 384 kb/s
Channel(s)                     : 6 channels
Channel layout                 : L R C LFE Ls Rs
Sampling rate                  : 48.0 kHz
Frame rate                     : 31.250 FPS (1536 SPF)
Compression mode               : Lossy
Delay relative to video        : 400 ms
Stream size                    : 311 MiB (4%)
Title                          : AC3 5.1
Language                       : French
Service kind                   : Complete Main
Default                        : Yes
Forced                         : No

Text
ID                             : 4
Format                         : UTF-8
Codec ID                       : S_TEXT/UTF8
Codec ID/Info                  : UTF-8 Plain Text
Title                          : French
Language                       : French
Default                        : No
Forced                         : No

Menu
00:00:00.000                   : en:Opening Credits
00:01:26.000                   : en:Seth Picks Evan up
00:03:21.000                   : en:Seth Ogles Jane
00:04:10.000                   : en:Seth Parks in the Faculty Lot
00:04:42.000                   : en:Seth and Evan Discuss Hook Ups
00:07:42.000                   : en:Evan and Seth Fail at School
00:08:37.000                   : en:Evan Recalls His Weekend
00:11:01.000                   : en:Seth Needs a Partner for Home Ec
00:13:00.000                   : en:Jules Invites Seth to Her Party
00:15:42.000                   : en:Seth Explains Why He Hates Becca
00:16:46.000                   : enittle Seth Draws Dicks
00:19:25.000                   : en:Jules Asks Seth for a Favor
00:21:05.000                   : en:Seth Interrupts Evan's Gym Class
00:23:09.000                   : en:Evan Offers to Buy Alcohol for Becca
00:24:35.000                   : en:Fogell Gets His ID
00:27:24.000                   : en:Seth Needs a Change of Clothes
00:28:15.000                   : en:Seth Wants the Booze Now
00:29:40.000                   : en:Seth Reviews His Options
00:31:52.000                   : en:Fogell Panics
00:33:49.000                   : en:Fogell Shops for Liquor
00:34:43.000                   : en:Seth and Evan Discuss Protection
00:36:04.000                   : en:Fogell Checks Out
00:37:48.000                   : en:The Police Interview Fogell
00:39:59.000                   : en:Seth and Evan Make New Plans
00:40:57.000                   : en:Old Enough to Party
00:42:42.000                   : en:Seth Blackmails Francis
00:44:19.000                   : en:The Guys Get Rides to Different Parties
00:45:28.000                   : en:Fogell Rides with the Cops
00:47:24.000                   : en:Seth and Evan Arrive at the Party
00:50:20.000                   : en:McLovin Helps Catch the Bad Guy
00:52:00.000                   : en:Seth Finds a Distraction
00:52:51.000                   : en:Becca Calls Evan
00:53:44.000                   : en:Seth Attempts to Steal Booze
00:54:35.000                   : en:The Guys at the Party Notice Something
00:56:38.000                   : en:McLovin Drinks with the Cops
00:59:31.000                   : en:Seth Hits the Motherload
01:00:03.000                   : en:The Druggies Mistake Evan for Someone Else
01:02:06.000                   : en:McLovin Has Beginner's Luck
01:03:39.000                   : en:Seth and Evan Try to Blend In
01:05:01.000                   : en:Mark Starts Another Fight
01:06:00.000                   : en:McLovin and the Cops Run from the Cops
01:07:22.000                   : en:Seth and Evan Argue
01:09:12.000                   : en:Seth Has More Bad Luck
01:11:58.000                   : en:Evan, Seth and McLovin Escape
01:15:46.000                   : en:McMuffin Runs into the Enemy
01:17:37.000                   : en:Seth Learns the Truth
01:18:29.000                   : en:The Guys Finally Arrive to the Party
01:20:07.000                   : en:The Boys Make Their Moves
01:21:38.000                   : en:Evan Finds Becca Outside
01:22:58.000                   : en:Jules Thanks Seth
01:24:21.000                   : en:Becca and Evan Hook Up
01:26:05.000                   : en:Jules and Seth Converse
01:27:26.000                   : en:Evan Can't Handle the Pressure
01:29:11.000                   : en:McLovin and Seth Are in Opposite Situations
01:30:48.000                   : en:The Cops Break Up the Party
01:32:29.000                   : en:The Cops Cockblock McLovin
01:34:49.000                   : en:Fogell Is Tougher than he Seems
01:35:36.000                   : en:Seth Saves Evan
01:36:23.000                   : en:McLovin and the Cops Destroy the Evidence
01:39:41.000                   : en:Seth and Evan Have a Heart to Heart
01:42:18.000                   : en:The Guys Wake Up
01:43:23.000                   : en:Seth Looks for Pants
01:44:18.000                   : en:Everyone Meets Up
01:48:13.000                   : en:End Credits


Superbad.2007.Theatrical.Cut.4K.MULTI.2160p.HDR.WEB.AC3.HEVC-DDR.mkv_20210126_14.jpg Superbad.2007.Theatrical.Cut.4K.MULTI.2160p.HDR.WEB.AC3.HEVC-DDR.mkv_20210126_14.jpg Superbad.2007.Theatrical.Cut.4K.MULTI.2160p.HDR.WEB.AC3.HEVC-DDR.mkv_20210126_14.jpg Superbad.2007.Theatrical.Cut.4K.MULTI.2160p.HDR.WEB.AC3.HEVC-DDR.mkv_20210126_14.jpg Superbad.2007.Theatrical.Cut.4K.MULTI.2160p.HDR.WEB.AC3.HEVC-DDR.mkv_20210126_14.jpg Superbad.2007.Theatrical.Cut.4K.MULTI.2160p.HDR.WEB.AC3.HEVC-DDR.mkv_20210126_14.jpg



游客,如果您要查看本帖隐藏内容请回复






.

回复

使用道具 举报

0

主题

1393

帖子

4019

积分

4K家园VIP

Rank: 9Rank: 9Rank: 9

积分
4019
发表于 2021-1-21 11:43:55 | 显示全部楼层
感谢推荐,确实不错
回复 支持 反对

使用道具 举报

0

主题

2608

帖子

8395

积分

4K家园VIP

Rank: 9Rank: 9Rank: 9

积分
8395
发表于 2021-1-21 11:45:16 | 显示全部楼层
太好啦&萬分感謝版主的無私發佈分享%
回复 支持 反对

使用道具 举报

0

主题

4

帖子

19

积分

新手上路

Rank: 1

积分
19
发表于 2021-1-22 07:51:07 | 显示全部楼层

太棒了,感谢
回复 支持 反对

使用道具 举报

1

主题

1213

帖子

3483

积分

4K家园VIP

Rank: 9Rank: 9Rank: 9

积分
3483
发表于 2021-1-23 01:30:51 来自手机 | 显示全部楼层
LZ敢整点更有创意的不?兄弟们等着围观捏~
回复 支持 反对

使用道具 举报

0

主题

2

帖子

13

积分

新手上路

Rank: 1

积分
13
发表于 2021-1-23 15:27:38 | 显示全部楼层
ASDAS
回复

使用道具 举报

37

主题

1351

帖子

3827

积分

4K家园VIP

Rank: 9Rank: 9Rank: 9

积分
3827
发表于 2021-1-23 23:56:15 来自手机 | 显示全部楼层
我也来顶一下..
回复 支持 反对

使用道具 举报

2

主题

1487

帖子

4027

积分

4K家园VIP

Rank: 9Rank: 9Rank: 9

积分
4027
发表于 2021-1-24 21:22:20 | 显示全部楼层
向楼主学习
回复 支持 反对

使用道具 举报

0

主题

26

帖子

85

积分

新手上路

Rank: 1

积分
85
发表于 2021-1-24 21:59:29 | 显示全部楼层
名字挺让人联想的
谢谢!
回复 支持 反对

使用道具 举报

36

主题

1248

帖子

3564

积分

4K家园VIP

Rank: 9Rank: 9Rank: 9

积分
3564
发表于 2021-1-29 02:18:14 来自手机 | 显示全部楼层
多谢楼主分享
回复 支持 反对

使用道具 举报

您需要登录后才可以回帖 登录 | 立即注册

本版积分规则

精彩图文
Archiver|手机版|TAG|Sitemap|新帖|专题|联系我们:邮箱: 4kjia.com@gmail.com   

4k家园   ©2019