2020 MCND - Crush 4k [2160P/MP4/421MB]

[复制链接]

2210

主题

2494

帖子

2万

积分

超级版主

Rank: 8Rank: 8

积分
20509
 楼主| 发表于 2021-1-23 15:36:05 | 显示全部楼层 |阅读模式
2020 MCND - Crush 4k.mp4_20210123_153818.125_meitu_5.jpg 2020 MCND - Crush 4k.mp4_20210123_153824.412_meitu_6.jpg 2020 MCND - Crush 4k.mp4_20210123_153846.612_meitu_7.jpg 2020 MCND - Crush 4k.mp4_20210123_153904.716_meitu_8.jpg


General
Complete name                  : H:\2020 MCND - Crush 4k.mp4
Format                         : MPEG-4
Format profile                 : Base Media
Codec ID                       : isom (isom/iso2/avc1/mp41)
File size                      : 422 MiB
Duration                       : 3 min 28 s
Overall bit rate               : 17.0 Mb/s
Writing application            : Lavf58.12.100
exvr                           : EX1.8.2(C1.0.9)

Video
ID                             : 1
Format                         : AVC
Format/Info                    : Advanced Video Codec
Format profile                 : High@L5.1
Format settings                : CABAC / 4 Ref Frames
Format settings, CABAC         : Yes
Format settings, Reference fra : 4 frames
Codec ID                       : avc1
Codec ID/Info                  : Advanced Video Coding
Duration                       : 3 min 28 s
Bit rate                       : 16.8 Mb/s
Width                          : 3 840 pixels
Height                         : 2 160 pixels
Display aspect ratio           : 16:9
Frame rate mode                : Constant
Frame rate                     : 23.976 (23976/1000) FPS
Color space                    : YUV
Chroma subsampling             : 4:2:0
Bit depth                      : 8 bits
Scan type                      : Progressive
Bits/(Pixel*Frame)             : 0.084
Stream size                    : 417 MiB (99%)
Color range                    : Limited
Color primaries                : BT.709
Transfer characteristics       : BT.709
Matrix coefficients            : BT.709
Codec configuration box        : avcC

Audio
ID                             : 2
Format                         : AAC LC
Format/Info                    : Advanced Audio Codec Low Complexity
Codec ID                       : mp4a-40-2
Duration                       : 3 min 28 s
Bit rate mode                  : Constant
Bit rate                       : 192 kb/s
Channel(s)                     : 2 channels
Channel layout                 : L R
Sampling rate                  : 48.0 kHz
Frame rate                     : 46.875 FPS (1024 SPF)
Compression mode               : Lossy
Stream size                    : 4.77 MiB (1%)
Default                        : Yes
Alternate group                : 1



网盘下载失效不补:链接: https://pan.baidu.com/s/19HqHlKPhSOcHAXAJpGhudQ 提取码:
****此区域为收费内容****    需支付 15 金币后可查看立即购买



.
回复

使用道具 举报

1

主题

1206

帖子

3406

积分

4K家园VIP

Rank: 9Rank: 9Rank: 9

积分
3406
发表于 2021-1-23 15:36:10 | 显示全部楼层
路过
回复 支持 反对

使用道具 举报

1

主题

1020

帖子

3032

积分

4K家园VIP

Rank: 9Rank: 9Rank: 9

积分
3032
发表于 2021-1-23 16:39:19 | 显示全部楼层
是爷们的娘们的都帮顶!大力支持
回复 支持 反对

使用道具 举报

0

主题

1195

帖子

3435

积分

4K家园VIP

Rank: 9Rank: 9Rank: 9

积分
3435
发表于 2021-1-23 17:07:54 | 显示全部楼层
撸过
回复 支持 反对

使用道具 举报

0

主题

1254

帖子

3568

积分

4K家园VIP

Rank: 9Rank: 9Rank: 9

积分
3568
发表于 2021-1-23 18:16:31 | 显示全部楼层
看帖要回,回帖才健康,在踩踩,楼主辛苦了!
回复 支持 反对

使用道具 举报

0

主题

1154

帖子

3486

积分

4K家园VIP

Rank: 9Rank: 9Rank: 9

积分
3486
发表于 2021-1-23 21:50:59 | 显示全部楼层
还有没有别的资源,多分享些
回复 支持 反对

使用道具 举报

0

主题

94

帖子

213

积分

新手上路

Rank: 1

积分
213
发表于 2021-2-3 14:54:01 | 显示全部楼层
还有没有别的资源
回复 支持 反对

使用道具 举报

您需要登录后才可以回帖 登录 | 立即注册

本版积分规则

精彩图文
Archiver|手机版|TAG|Sitemap|新帖|专题|联系我们:邮箱: 4kjia.com@gmail.com   

4k家园   ©2019