2021 TREASURE - 我的宝藏4k [2160P/MP4/351MB]

[复制链接]

2210

主题

2494

帖子

2万

积分

超级版主

Rank: 8Rank: 8

积分
20518
 楼主| 发表于 2021-1-25 10:30:00 | 显示全部楼层 |阅读模式
2020 TREASURE - 我的宝藏4k.mp4_20210123_154710.005_meitu_9.jpg 2020 TREASURE - 我的宝藏4k.mp4_20210123_154738.509.jpg 2020 TREASURE - 我的宝藏4k.mp4_20210123_154747.164_meitu_11.jpg 2020 TREASURE - 我的宝藏4k.mp4_20210123_154804.285_meitu_12.jpg

General
Complete name                  : H:\2020 TREASURE - 我的宝藏4k.mp4
Format                         : MPEG-4
Format profile                 : Base Media
Codec ID                       : isom (isom/iso2/avc1/mp41)
File size                      : 351 MiB
Duration                       : 3 min 20 s
Overall bit rate               : 14.7 Mb/s
Writing application            : Lavf58.12.100
exvr                           : EX1.8.2(C1.0.9)

Video
ID                             : 1
Format                         : AVC
Format/Info                    : Advanced Video Codec
Format profile                 : High@L5.1
Format settings                : CABAC / 4 Ref Frames
Format settings, CABAC         : Yes
Format settings, Reference fra : 4 frames
Codec ID                       : avc1
Codec ID/Info                  : Advanced Video Coding
Duration                       : 3 min 20 s
Bit rate                       : 14.5 Mb/s
Width                          : 3 840 pixels
Height                         : 2 160 pixels
Display aspect ratio           : 16:9
Frame rate mode                : Constant
Frame rate                     : 23.976 (23976/1000) FPS
Color space                    : YUV
Chroma subsampling             : 4:2:0
Bit depth                      : 8 bits
Scan type                      : Progressive
Bits/(Pixel*Frame)             : 0.073
Stream size                    : 347 MiB (99%)
Color range                    : Limited
Color primaries                : BT.709
Transfer characteristics       : BT.709
Matrix coefficients            : BT.709
Codec configuration box        : avcC

Audio
ID                             : 2
Format                         : AAC LC
Format/Info                    : Advanced Audio Codec Low Complexity
Codec ID                       : mp4a-40-2
Duration                       : 3 min 20 s
Bit rate mode                  : Constant
Bit rate                       : 192 kb/s
Channel(s)                     : 2 channels
Channel layout                 : L R
Sampling rate                  : 48.0 kHz
Frame rate                     : 46.875 FPS (1024 SPF)
Compression mode               : Lossy
Stream size                    : 4.59 MiB (1%)
Default                        : Yes
Alternate group                : 1




网盘下载失效不补:链接: https://pan.baidu.com/s/1on3NwdCfJZ7QfFJW4yZeTw 提取码:
****此区域为收费内容****    需支付 15 金币后可查看立即购买



.
回复

使用道具 举报

1

主题

1214

帖子

3486

积分

4K家园VIP

Rank: 9Rank: 9Rank: 9

积分
3486
发表于 2021-1-25 10:30:05 | 显示全部楼层
哈哈,我只看看不说话
回复 支持 反对

使用道具 举报

31

主题

1387

帖子

3885

积分

4K家园VIP

Rank: 9Rank: 9Rank: 9

积分
3885
发表于 2021-1-31 18:30:46 | 显示全部楼层
站位支持
回复 支持 反对

使用道具 举报

1

主题

1223

帖子

3517

积分

4K家园VIP

Rank: 9Rank: 9Rank: 9

积分
3517
发表于 2021-2-1 08:31:06 | 显示全部楼层
占位编辑
回复 支持 反对

使用道具 举报

46

主题

1287

帖子

3695

积分

4K家园VIP

Rank: 9Rank: 9Rank: 9

积分
3695
发表于 2021-2-5 16:08:08 来自手机 | 显示全部楼层
路过
回复 支持 反对

使用道具 举报

1

主题

1035

帖子

3127

积分

4K家园VIP

Rank: 9Rank: 9Rank: 9

积分
3127
发表于 2021-2-14 17:24:49 | 显示全部楼层
还有没有别的资源,多分享些
回复 支持 反对

使用道具 举报

您需要登录后才可以回帖 登录 | 立即注册

本版积分规则

精彩图文
Archiver|手机版|TAG|Sitemap|新帖|专题|联系我们:邮箱: 4kjia.com@gmail.com   

4k家园   ©2019