2020 woo!ah! - 我不想念你4k [2160P/MP4/389MB]

[复制链接]

2210

主题

2494

帖子

2万

积分

超级版主

Rank: 8Rank: 8

积分
20521
 楼主| 发表于 2021-1-26 11:00:00 | 显示全部楼层 |阅读模式
2020 woo!ah! - 我不想念你4k.mp4_20210123_155339.853_meitu_13.jpg 2020 woo!ah! - 我不想念你4k.mp4_20210123_155347.029_meitu_14.jpg 2020 woo!ah! - 我不想念你4k.mp4_20210123_155359.285_meitu_15.jpg 2020 woo!ah! - 我不想念你4k.mp4_20210123_155411.661_meitu_16.jpg

General
Complete name                  : H:\2020 woo!ah! - 我不想念你4k.mp4
Format                         : MPEG-4
Format profile                 : Base Media
Codec ID                       : isom (isom/iso2/avc1/mp41)
File size                      : 389 MiB
Duration                       : 4 min 0 s
Overall bit rate               : 13.6 Mb/s
Writing application            : Lavf58.12.100
exvr                           : EX1.8.2(C1.0.9)

Video
ID                             : 1
Format                         : AVC
Format/Info                    : Advanced Video Codec
Format profile                 : High@L5.1
Format settings                : CABAC / 4 Ref Frames
Format settings, CABAC         : Yes
Format settings, Reference fra : 4 frames
Codec ID                       : avc1
Codec ID/Info                  : Advanced Video Coding
Duration                       : 4 min 0 s
Bit rate                       : 13.4 Mb/s
Width                          : 3 840 pixels
Height                         : 2 160 pixels
Display aspect ratio           : 16:9
Frame rate mode                : Constant
Frame rate                     : 23.976 (23976/1000) FPS
Color space                    : YUV
Chroma subsampling             : 4:2:0
Bit depth                      : 8 bits
Scan type                      : Progressive
Bits/(Pixel*Frame)             : 0.067
Stream size                    : 384 MiB (99%)
Color range                    : Limited
Color primaries                : BT.709
Transfer characteristics       : BT.709
Matrix coefficients            : BT.709
Codec configuration box        : avcC

Audio
ID                             : 2
Format                         : AAC LC
Format/Info                    : Advanced Audio Codec Low Complexity
Codec ID                       : mp4a-40-2
Duration                       : 4 min 0 s
Bit rate mode                  : Constant
Bit rate                       : 192 kb/s
Channel(s)                     : 2 channels
Channel layout                 : L R
Sampling rate                  : 48.0 kHz
Frame rate                     : 46.875 FPS (1024 SPF)
Compression mode               : Lossy
Stream size                    : 5.50 MiB (1%)
Default                        : Yes
Alternate group                : 1




网盘下载失效不补:链接: https://pan.baidu.com/s/1PabUphjFx7ukPYCTq6U67g 提取码:
****此区域为收费内容****    需支付 15 金币后可查看立即购买


.
回复

使用道具 举报

0

主题

1468

帖子

3992

积分

4K家园VIP

Rank: 9Rank: 9Rank: 9

积分
3992
发表于 2021-1-26 11:00:07 | 显示全部楼层
顶起出售广告位
回复 支持 反对

使用道具 举报

1

主题

1176

帖子

3344

积分

4K家园VIP

Rank: 9Rank: 9Rank: 9

积分
3344
发表于 2021-1-26 11:00:07 来自手机 | 显示全部楼层
我是个凑数的。。。
回复 支持 反对

使用道具 举报

0

主题

319

帖子

1101

积分

注册会员

Rank: 2

积分
1101
发表于 2021-1-26 17:38:47 | 显示全部楼层
谢谢楼主分享
回复 支持 反对

使用道具 举报

0

主题

5

帖子

18

积分

新手上路

Rank: 1

积分
18
发表于 2021-1-27 21:25:57 | 显示全部楼层
晨日历是非是 百叶晨跑最春哥 几点开始晨喳压路机蝇在
回复 支持 反对

使用道具 举报

61

主题

1325

帖子

3853

积分

4K家园VIP

Rank: 9Rank: 9Rank: 9

积分
3853
发表于 2021-1-28 10:36:47 | 显示全部楼层
楼主这资源不错,我收藏了
回复 支持 反对

使用道具 举报

2

主题

1177

帖子

3549

积分

4K家园VIP

Rank: 9Rank: 9Rank: 9

积分
3549
发表于 2021-1-29 04:09:24 来自手机 | 显示全部楼层
4K家园不错,希望这种资源越多越好
回复 支持 反对

使用道具 举报

1

主题

1164

帖子

3506

积分

4K家园VIP

Rank: 9Rank: 9Rank: 9

积分
3506
发表于 2021-1-31 14:59:16 | 显示全部楼层
试试看吧
回复 支持 反对

使用道具 举报

0

主题

94

帖子

213

积分

新手上路

Rank: 1

积分
213
发表于 2021-2-3 08:05:54 | 显示全部楼层
试试看吧
回复

使用道具 举报

您需要登录后才可以回帖 登录 | 立即注册

本版积分规则

精彩图文
Archiver|手机版|TAG|Sitemap|新帖|专题|联系我们:邮箱: 4kjia.com@gmail.com   

4k家园   ©2019