[4K记录视频] [国家地理] 太阳神殿(2020) [2160P/MKV/485MB]

[复制链接]

2210

主题

2494

帖子

2万

积分

超级版主

Rank: 8Rank: 8

积分
20518
 楼主| 发表于 2021-1-27 19:11:23 | 显示全部楼层 |阅读模式

太阳神殿(2020)WEBRip 2160p.mkv_20210123_201022.000.jpg 太阳神殿(2020)WEBRip 2160p.mkv_20210123_201039.737.jpg 太阳神殿(2020)WEBRip 2160p.mkv_20210123_201048.233.jpg 太阳神殿(2020)WEBRip 2160p.mkv_20210123_201059.273.jpg

有关信息
标题:太阳神殿
发行年份: 2020
类型: 种类
国家/地区:俄罗斯
时间: 00:04 : 06

导演:Wind infinity

关于电影:

      太阳神殿是克里米亚最神秘和神秘的地方。对于某些人来说,这是圣地,对于另一些人来说,则是一个与宇宙联系或联系的地方。但是,尽管如此,对于所有参观太阳神庙的游客来说,这个地方将永远铭记在心。


General
Complete name                  : 太阳神殿(2020)WEBRip 2160p.mkv
Format                         : Matroska
Format version                 : Version 4
File size                      : 486 MiB
Duration                       : 4 min 6 s
Overall bit rate               : 16.5 Mb/s
Encoded date                   : UTC 2021-01-14 11:35:00
Writing application            : mkvmerge v52.0.0 ('Secret For The Mad') 64-bit
Writing library                : libebml v1.4.1 + libmatroska v1.6.2 / Lavf58.29.100

Video
ID                             : 1
Format                         : VP9
Codec ID                       : V_VP9
Duration                       : 4 min 6 s
Bit rate                       : 16.4 Mb/s
Width                          : 3 840 pixels
Height                         : 2 160 pixels
Display aspect ratio           : 16:9
Frame rate mode                : Constant
Frame rate                     : 29.970 (30000/1001) FPS
Color space                    : YUV
Bits/(Pixel*Frame)             : 0.066
Stream size                    : 482 MiB (99%)
Default                        : Yes
Forced                         : No
Color range                    : Limited
Color primaries                : BT.709
Transfer characteristics       : BT.709
Matrix coefficients            : BT.709

Audio
ID                             : 2
Format                         : AAC LC
Format/Info                    : Advanced Audio Codec Low Complexity
Codec ID                       : A_AAC-2
Duration                       : 4 min 6 s
Bit rate                       : 128 kb/s
Channel(s)                     : 2 channels
Channel layout                 : L R
Sampling rate                  : 44.1 kHz
Frame rate                     : 43.066 FPS (1024 SPF)
Compression mode               : Lossy
Stream size                    : 3.76 MiB (1%)
Default                        : Yes
Forced                         : No



游客,如果您要查看本帖隐藏内容请回复




.
回复

使用道具 举报

2

主题

1567

帖子

4237

积分

4K家园VIP

Rank: 9Rank: 9Rank: 9

积分
4237
发表于 2021-1-27 19:11:28 | 显示全部楼层
额.....这个可以有
回复 支持 反对

使用道具 举报

0

主题

2686

帖子

8508

积分

4K家园VIP

Rank: 9Rank: 9Rank: 9

积分
8508
发表于 2021-1-27 19:20:27 | 显示全部楼层
太阳神殿4k
回复 支持 反对

使用道具 举报

0

主题

12

帖子

37

积分

新手上路

Rank: 1

积分
37
发表于 2021-1-28 19:48:04 来自手机 | 显示全部楼层
谢谢分享
回复

使用道具 举报

62

主题

1370

帖子

3972

积分

4K家园VIP

Rank: 9Rank: 9Rank: 9

积分
3972
发表于 2021-1-30 09:43:55 | 显示全部楼层
在撸一遍。。。
回复 支持 反对

使用道具 举报

0

主题

9

帖子

62

积分

新手上路

Rank: 1

积分
62
发表于 2021-1-30 12:51:23 | 显示全部楼层
好好好好好啊好啊后
回复 支持 反对

使用道具 举报

0

主题

1166

帖子

3380

积分

4K家园VIP

Rank: 9Rank: 9Rank: 9

积分
3380
发表于 2021-1-31 07:40:32 | 显示全部楼层
我是个凑数的。。。
回复 支持 反对

使用道具 举报

0

主题

319

帖子

1101

积分

注册会员

Rank: 2

积分
1101
发表于 2021-1-31 21:41:54 | 显示全部楼层
谢谢楼主分享
回复 支持 反对

使用道具 举报

56

主题

1304

帖子

3746

积分

4K家园VIP

Rank: 9Rank: 9Rank: 9

积分
3746
发表于 2021-2-1 12:06:04 | 显示全部楼层
发发呆,回回帖,工作结束~
回复 支持 反对

使用道具 举报

1

主题

1184

帖子

3578

积分

4K家园VIP

Rank: 9Rank: 9Rank: 9

积分
3578
发表于 2021-2-1 17:43:10 | 显示全部楼层
多发些资源啊
回复 支持 反对

使用道具 举报

您需要登录后才可以回帖 登录 | 立即注册

本版积分规则

精彩图文
Archiver|手机版|TAG|Sitemap|新帖|专题|联系我们:邮箱: 4kjia.com@gmail.com   

4k家园   ©2019