[4K记录视频] [国家地理] 魔法阿斯图里亚斯(2020) [2160P/MKV/636MB]

[复制链接]

2210

主题

2494

帖子

2万

积分

超级版主

Rank: 8Rank: 8

积分
20521
 楼主| 发表于 2021-1-27 11:33:34 | 显示全部楼层 |阅读模式

魔法阿斯图里亚斯(636.36MB)(2020)WEBRip 2160p.mkv_20210126_145110.211.jpg 魔法阿斯图里亚斯(636.36MB)(2020)WEBRip 2160p.mkv_20210126_145116.123.jpg 魔法阿斯图里亚斯(636.36MB)(2020)WEBRip 2160p.mkv_20210126_145121.187.jpg 魔法阿斯图里亚斯(636.36MB)(2020)WEBRip 2160p.mkv_20210126_145142.883.jpg

有关信息
标题: Magical Asturias
原作: AsturiasMágica
发行年份: 2020
国家/地区: Isapania
时长: 00 : 04 : 40

类型: 种类
导演: Juan Carlos Cortina

关于剧情:

       沿着里瓦德塞利亚,兰斯,卢阿尔卡,皮科斯德欧罗巴和国家公园的海岸旅行,最隐蔽的观察要点是,坎塔布连海岸最奇特的岩层是一件展示阿斯图里亚斯风景之美的作品。


General
Complete name                  : 国家地理\魔法阿斯图里亚斯(636.36MB)(2020)WEBRip 2160p.mkv
Format                         : Matroska
Format version                 : Version 4
File size                      : 636 MiB
Duration                       : 4 min 40 s
Overall bit rate               : 19.0 Mb/s
Encoded date                   : UTC 2021-01-24 19:24:14
Writing application            : mkvmerge v52.0.0 ('Secret For The Mad') 64-bit
Writing library                : libebml v1.4.1 + libmatroska v1.6.2

Video
ID                             : 1
Format                         : AVC
Format/Info                    : Advanced Video Codec
Format profile                 : High@L5.2
Format settings                : CABAC / 5 Ref Frames
Format settings, CABAC         : Yes
Format settings, Reference fra : 5 frames
Codec ID                       : V_MPEG4/ISO/AVC
Duration                       : 4 min 40 s
Bit rate                       : 18.7 Mb/s
Width                          : 3 840 pixels
Height                         : 2 160 pixels
Display aspect ratio           : 16:9
Frame rate mode                : Constant
Frame rate                     : 30.000 FPS
Color space                    : YUV
Chroma subsampling             : 4:2:0
Bit depth                      : 8 bits
Scan type                      : Progressive
Bits/(Pixel*Frame)             : 0.075
Stream size                    : 628 MiB (99%)
Writing library                : x264 core 161 r10 4121277
Encoding settings              : cabac=1 / ref=5 / deblock=1:0:0 / analyse=0x3:0x113 / me=hex / subme=8 / psy=1 / psy_rd=1.00:0.00 / mixed_ref=1 / me_range=16 / chroma_me=1 / trellis=2 / 8x8dct=1 / cqm=0 / deadzone=21,11 / fast_pskip=1 / chroma_qp_offset=-2 / threads=48 / lookahead_threads=8 / sliced_threads=0 / nr=0 / decimate=1 / interlaced=0 / bluray_compat=0 / stitchable=1 / constrained_intra=0 / bframes=3 / b_pyramid=2 / b_adapt=2 / b_bias=0 / direct=3 / weightb=1 / open_gop=0 / weightp=2 / keyint=infinite / keyint_min=30 / scenecut=40 / intra_refresh=0 / rc_lookahead=50 / rc=crf / mbtree=1 / crf=20.0 / qcomp=0.60 / qpmin=5 / qpmax=69 / qpstep=4 / vbv_maxrate=24200 / vbv_bufsize=66000 / crf_max=0.0 / nal_hrd=none / filler=0 / ip_ratio=1.40 / aq=1:1.00
Default                        : Yes
Forced                         : No
Color range                    : Limited
Color primaries                : BT.709
Transfer characteristics       : BT.709
Matrix coefficients            : BT.709

Audio
ID                             : 2
Format                         : AAC LC
Format/Info                    : Advanced Audio Codec Low Complexity
Codec ID                       : A_AAC-2
Duration                       : 4 min 40 s
Bit rate                       : 253 kb/s
Channel(s)                     : 2 channels
Channel layout                 : L R
Sampling rate                  : 48.0 kHz
Frame rate                     : 46.875 FPS (1024 SPF)
Compression mode               : Lossy
Stream size                    : 8.48 MiB (1%)
Default                        : Yes
Forced                         : No



游客,如果您要查看本帖隐藏内容请回复



.
回复

使用道具 举报

1

主题

1142

帖子

3440

积分

4K家园VIP

Rank: 9Rank: 9Rank: 9

积分
3440
发表于 2021-1-27 11:33:39 来自手机 | 显示全部楼层
楼下的接上
回复 支持 反对

使用道具 举报

0

主题

2695

帖子

8530

积分

4K家园VIP

Rank: 9Rank: 9Rank: 9

积分
8530
发表于 2021-1-27 11:55:00 | 显示全部楼层
魔法阿斯图里亚斯4k
回复 支持 反对

使用道具 举报

0

主题

11

帖子

8506

积分

金牌会员

Rank: 6Rank: 6

积分
8506
发表于 2021-1-27 18:32:10 | 显示全部楼层
谢谢楼主分享资源
回复 支持 反对

使用道具 举报

0

主题

2

帖子

13

积分

新手上路

Rank: 1

积分
13
发表于 2021-1-27 20:46:31 | 显示全部楼层
感谢分享感谢分享
回复 支持 反对

使用道具 举报

0

主题

1

帖子

10

积分

新手上路

Rank: 1

积分
10
发表于 2021-1-28 00:58:24 | 显示全部楼层
出校门很明白vVBv吧
回复 支持 反对

使用道具 举报

0

主题

20

帖子

79

积分

新手上路

Rank: 1

积分
79
发表于 2021-1-28 15:42:07 | 显示全部楼层
感谢分享感谢分享
回复 支持 反对

使用道具 举报

0

主题

12

帖子

37

积分

新手上路

Rank: 1

积分
37
发表于 2021-1-28 18:21:27 来自手机 | 显示全部楼层
谢谢分享
回复

使用道具 举报

0

主题

3

帖子

16

积分

新手上路

Rank: 1

积分
16
发表于 2021-1-29 09:26:02 | 显示全部楼层
haokanhaokanhaokan
回复 支持 反对

使用道具 举报

0

主题

9

帖子

36

积分

新手上路

Rank: 1

积分
36
发表于 2021-2-1 20:43:38 | 显示全部楼层
6666666
回复

使用道具 举报

您需要登录后才可以回帖 登录 | 立即注册

本版积分规则

精彩图文
Archiver|手机版|TAG|Sitemap|新帖|专题|联系我们:邮箱: 4kjia.com@gmail.com   

4k家园   ©2019