[4K电影] 《郊区男孩/巴黎男孩(台)》4K高清下载/大小8.70GB

[复制链接]

318

主题

328

帖子

3377

积分

4K家园VIP

Rank: 9Rank: 9Rank: 9

积分
3377
 楼主| 发表于 2021-1-26 19:41:09 | 显示全部楼层 |阅读模式
p2571346411.webp.jpg

导演: Kery James / Leïla Sy
编剧: Kery James
主演: Jammeh Diangana / Kery James / Chloé Jouannet
类型: 犯罪
制片国家/地区: 法国
语言: 法语
上映日期: 2019-10-12(美国)
片长: 96分钟
又名: 巴黎男孩(台) / Street Flow


剧情简介:

  15 岁的努穆克必须决定跟随哪一位兄弟的脚步:法律专业学生索莱马,还是暴徒德姆巴。凯利·詹姆斯担任编剧和联合导演。


Video
ID : 1
Format : HEVC
Format/Info : High Efficiency Video Coding
Format profile : Main 10@L5@Main
Codec ID : V_MPEGH/ISO/HEVC
Duration : 1 h 36 min
Bit rate : 11.7 Mb/s
Width : 3 840 pixels
Height : 2 160 pixels
Display aspect ratio : 16:9
Frame rate mode : Constant
Frame rate : 24.000 FPS
Color space : YUV
Chroma subsampling : 4:2:0
Bit depth : 10 bits
Bits/(Pixel*Frame) : 0.059
Stream size : 7.84 GiB (90%)
Default : Yes
Forced : No
Color range : Limited
Color primaries : BT.709
Transfer characteristics : BT.709
Matrix coefficients : BT.709

Audio #1
ID : 2
Format : E-AC-3
Format/Info : Enhanced AC-3
Commercial name : Dolby Digital Plus
Codec ID : A_EAC3
Duration : 1 h 36 min
Bit rate mode : Constant
Bit rate : 640 kb/s
Channel(s) : 6 channels
Channel layout : L R C LFE Ls Rs
Sampling rate : 48.0 kHz
Frame rate : 31.250 FPS (1536 SPF)
Compression mode : Lossy
Stream size : 440 MiB (5%)
Title : DDP 5.1
Language : French
Service kind : Complete Main
Default : Yes
Forced : No

Audio #2
ID : 3
Format : E-AC-3
Format/Info : Enhanced AC-3
Commercial name : Dolby Digital Plus
Codec ID : A_EAC3
Duration : 1 h 36 min
Bit rate mode : Constant
Bit rate : 640 kb/s
Channel(s) : 6 channels
Channel layout : L R C LFE Ls Rs
Sampling rate : 48.0 kHz
Frame rate : 31.250 FPS (1536 SPF)
Compression mode : Lossy
Stream size : 440 MiB (5%)
Title : DDP 5.1
Language : English
Service kind : Complete Main
Default : No
Forced : No

Text #1
ID : 4
Format : UTF-8
Codec ID : S_TEXT/UTF8
Codec ID/Info : UTF-8 Plain Text
Duration : 1 h 28 min
Bit rate : 0 b/s
Count of elements : 7
Stream size : 197 Bytes (0%)
Title : Forced
Language : English
Default : Yes
Forced : Yes

Text #2
ID : 5
Format : UTF-8
Codec ID : S_TEXT/UTF8
Codec ID/Info : UTF-8 Plain Text
Duration : 1 h 30 min
Bit rate : 68 b/s
Count of elements : 1318
Stream size : 45.5 KiB (0%)
Title : SDH
Language : French
Default : No
Forced : No

Text #3
ID : 6
Format : UTF-8
Codec ID : S_TEXT/UTF8
Codec ID/Info : UTF-8 Plain Text
Duration : 1 h 30 min
Bit rate : 65 b/s
Count of elements : 1461
Stream size : 43.1 KiB (0%)
Title : SDH
Language : English
Default : No
Forced : No

Text #4
ID : 7
Format : UTF-8
Codec ID : S_TEXT/UTF8
Codec ID/Info : UTF-8 Plain Text
Duration : 1 h 29 min
Bit rate : 57 b/s
Count of elements : 1238
Stream size : 37.8 KiB (0%)
Language : English
Default : No
Forced : No

Text #5
ID : 8
Format : UTF-8
Codec ID : S_TEXT/UTF8
Codec ID/Info : UTF-8 Plain Text
Duration : 1 h 35 min
Bit rate : 91 b/s
Count of elements : 1185
Stream size : 63.8 KiB (0%)
Language : Arabic
Default : No
Forced : No

Text #6
ID : 9
Format : UTF-8
Codec ID : S_TEXT/UTF8
Codec ID/Info : UTF-8 Plain Text
Duration : 1 h 35 min
Bit rate : 53 b/s
Count of elements : 1187
Stream size : 37.4 KiB (0%)
Language : Czech
Default : No
Forced : No

Text #7
ID : 10
Format : UTF-8
Codec ID : S_TEXT/UTF8
Codec ID/Info : UTF-8 Plain Text
Duration : 1 h 34 min
Bit rate : 51 b/s
Count of elements : 1046
Stream size : 35.5 KiB (0%)
Language : Danish
Default : No
Forced : No

Text #8
ID : 11
Format : UTF-8
Codec ID : S_TEXT/UTF8
Codec ID/Info : UTF-8 Plain Text
Duration : 1 h 34 min
Bit rate : 57 b/s
Count of elements : 1190
Stream size : 39.6 KiB (0%)
Language : German
Default : No
Forced : No

Text #9
ID : 12
Format : UTF-8
Codec ID : S_TEXT/UTF8
Codec ID/Info : UTF-8 Plain Text
Duration : 1 h 35 min
Bit rate : 89 b/s
Count of elements : 1181
Stream size : 62.3 KiB (0%)
Language : Greek
Default : No
Forced : No

Text #10
ID : 13
Format : UTF-8
Codec ID : S_TEXT/UTF8
Codec ID/Info : UTF-8 Plain Text
Duration : 1 h 34 min
Bit rate : 56 b/s
Count of elements : 1171
Stream size : 38.6 KiB (0%)
Language : Spanish
Default : No
Forced : No


24704319636041522854_thumb.jpg 38821863435731655236_thumb.jpg 91047995416878135971_thumb.png


游客,如果您要查看本帖隐藏内容请回复



.









回复

使用道具 举报

0

主题

1146

帖子

3458

积分

4K家园VIP

Rank: 9Rank: 9Rank: 9

积分
3458
发表于 2021-1-26 19:41:26 | 显示全部楼层
还有没有别的资源,多分享些
回复 支持 反对

使用道具 举报

0

主题

1229

帖子

3531

积分

4K家园VIP

Rank: 9Rank: 9Rank: 9

积分
3531
发表于 2021-1-26 19:41:26 | 显示全部楼层
大人,此事必有蹊跷!
回复 支持 反对

使用道具 举报

0

主题

2686

帖子

8508

积分

4K家园VIP

Rank: 9Rank: 9Rank: 9

积分
8508
发表于 2021-1-26 19:46:37 | 显示全部楼层
太好啦&萬分感謝版主的無私發佈分享%
回复 支持 反对

使用道具 举报

1

主题

1164

帖子

3506

积分

4K家园VIP

Rank: 9Rank: 9Rank: 9

积分
3506
发表于 2021-1-27 07:19:04 | 显示全部楼层
回复 支持 反对

使用道具 举报

0

主题

1052

帖子

3168

积分

4K家园VIP

Rank: 9Rank: 9Rank: 9

积分
3168
发表于 2021-1-31 04:34:13 来自手机 | 显示全部楼层
在撸一遍。。。
回复 支持 反对

使用道具 举报

56

主题

1380

帖子

3994

积分

4K家园VIP

Rank: 9Rank: 9Rank: 9

积分
3994
发表于 2021-1-31 21:59:33 来自手机 | 显示全部楼层
前排顶起
回复 支持 反对

使用道具 举报

0

主题

94

帖子

213

积分

新手上路

Rank: 1

积分
213
发表于 2021-2-3 16:16:20 | 显示全部楼层
巴黎男孩
回复

使用道具 举报

您需要登录后才可以回帖 登录 | 立即注册

本版积分规则

精彩图文
Archiver|手机版|TAG|Sitemap|新帖|专题|联系我们:邮箱: 4kjia.com@gmail.com   

4k家园   ©2019