[4K电影] 《在无爱之森呐喊》4K高清下载/大小13.95GB

[复制链接]

370

主题

380

帖子

3709

积分

4K家园VIP

Rank: 9Rank: 9Rank: 9

积分
3709
 楼主| 发表于 2021-1-26 19:48:13 | 显示全部楼层 |阅读模式
MV5BY2VjZDI1ZGYtMjI4ZS00NTMwLThlZGYtZjZiZWI5OWM4ZDFlXkEyXkFqcGdeQXVyNjU5NTI3NjU@._V1_.jpg

译  名 在无爱之森呐喊/情罔森林(港)/在无爱之森放声呐喊(台)/在没有爱的森林呐喊
片  名 The Forest of Love
年  代 2019
国  家 日本
类  别 犯罪/惊悚
语  言 日语
字  幕 中文字幕
评  分 6.7/10 from 2,580 users
链  接 https://movie.douban.com/subject/30337760
文件格式 WebDL-720p.MP4
视频尺寸 1280 x 720
文件大小 2.84 GB
片  长 151 Min
导  演 园子温 Shion Sono
主  演 椎名桔平 Kippei Shiina
     满岛真之介 Shin'nosuke Mitsushima
     日南响子 Kyoko Hinami
     海 YOUNG DAIS
     真飞圣 Sei Matobu
     绪方义博 Denden
     镰泷绘理 Eri Kamataki
     藤井千帆 Chiho Fujii

影片简介:

  在怪诞出奇的作品的《冰冷热带鱼》和《恋之罪》之后,富有远见的导演园子温又在新作品中展现了自己的才能。
  《在没有爱的森林呐喊》审视了人类行为的黑暗面,讲述了冷酷无情的村田丈利用自己的魅力来操纵周围的人。村田认识了信和一群胸怀抱负的电影制作人,他们认为村田以及他与美津子的多磨的感情关系是完美的电影主题。在拍摄期间,这群人的关系越来越亲密,谎言与真相变得难以区分,人性的极限也受到了考验,导致了各种令人毛骨悚然的行为。


ideo
ID : 1
Format : HEVC
Format/Info : High Efficiency Video Coding
Format profile : Main 10@L5@Main
Codec ID : V_MPEGH/ISO/HEVC
Duration : 2 h 31 min
Bit rate : 11.9 Mb/s
Width : 3 840 pixels
Height : 2 160 pixels
Display aspect ratio : 16:9
Frame rate mode : Constant
Frame rate : 23.976 (24000/1001) FPS
Color space : YUV
Chroma subsampling : 4:2:0
Bit depth : 10 bits
Bits/(Pixel*Frame) : 0.060
Stream size : 12.6 GiB (90%)
Language : Japanese
Default : Yes
Forced : No
Color range : Limited
Color primaries : BT.709
Transfer characteristics : BT.709
Matrix coefficients : BT.709

Audio #1
ID : 2
Format : E-AC-3
Format/Info : Enhanced AC-3
Commercial name : Dolby Digital Plus
Codec ID : A_EAC3
Duration : 2 h 31 min
Bit rate mode : Constant
Bit rate : 640 kb/s
Channel(s) : 6 channels
Channel layout : L R C LFE Ls Rs
Sampling rate : 48.0 kHz
Frame rate : 31.250 FPS (1536 SPF)
Compression mode : Lossy
Stream size : 693 MiB (5%)
Title : DDP 5.1
Language : Japanese
Service kind : Complete Main
Default : Yes
Forced : No

Audio #2
ID : 3
Format : E-AC-3
Format/Info : Enhanced AC-3
Commercial name : Dolby Digital Plus
Codec ID : A_EAC3
Duration : 2 h 31 min
Bit rate mode : Constant
Bit rate : 640 kb/s
Channel(s) : 6 channels
Channel layout : L R C LFE Ls Rs
Sampling rate : 48.0 kHz
Frame rate : 31.250 FPS (1536 SPF)
Compression mode : Lossy
Stream size : 693 MiB (5%)
Title : DDP 5.1
Language : English
Service kind : Complete Main
Default : No
Forced : No

Text #1
ID : 4
Format : UTF-8
Codec ID : S_TEXT/UTF8
Codec ID/Info : UTF-8 Plain Text
Duration : 2 h 28 min
Bit rate : 53 b/s
Count of elements : 2210
Stream size : 57.5 KiB (0%)
Language : English
Default : Yes
Forced : No

Text #2
ID : 5
Format : UTF-8
Codec ID : S_TEXT/UTF8
Codec ID/Info : UTF-8 Plain Text
Duration : 1 h 55 min
Bit rate : 1 b/s
Count of elements : 51
Stream size : 1.06 KiB (0%)
Title : Forced
Language : English
Default : No
Forced : No

Text #3
ID : 6
Format : UTF-8
Codec ID : S_TEXT/UTF8
Codec ID/Info : UTF-8 Plain Text
Duration : 2 h 28 min
Bit rate : 87 b/s
Count of elements : 2432
Stream size : 95.4 KiB (0%)
Title : SDH
Language : Japanese
Default : No
Forced : No

Text #4
ID : 7
Format : UTF-8
Codec ID : S_TEXT/UTF8
Codec ID/Info : UTF-8 Plain Text
Duration : 2 h 31 min
Bit rate : 91 b/s
Count of elements : 2065
Stream size : 102 KiB (0%)
Language : Arabic
Default : No
Forced : No

Text #5
ID : 8
Format : UTF-8
Codec ID : S_TEXT/UTF8
Codec ID/Info : UTF-8 Plain Text
Duration : 2 h 31 min
Bit rate : 51 b/s
Count of elements : 2055
Stream size : 57.4 KiB (0%)
Language : Czech
Default : No
Forced : No

Text #6
ID : 9
Format : UTF-8
Codec ID : S_TEXT/UTF8
Codec ID/Info : UTF-8 Plain Text
Duration : 2 h 31 min
Bit rate : 51 b/s
Count of elements : 2081
Stream size : 57.0 KiB (0%)
Language : Danish
Default : No
Forced : No

Text #7
ID : 10
Format : UTF-8
Codec ID : S_TEXT/UTF8
Codec ID/Info : UTF-8 Plain Text
Duration : 2 h 31 min
Bit rate : 58 b/s
Count of elements : 2057
Stream size : 65.1 KiB (0%)
Language : German
Default : No
Forced : No

Text #8
ID : 11
Format : UTF-8
Codec ID : S_TEXT/UTF8
Codec ID/Info : UTF-8 Plain Text
Duration : 2 h 31 min
Bit rate : 89 b/s
Count of elements : 2083
Stream size : 98.6 KiB (0%)
Language : Greek
Default : No
Forced : No

Text #9
ID : 12
Format : UTF-8
Codec ID : S_TEXT/UTF8
Codec ID/Info : UTF-8 Plain Text
Duration : 2 h 31 min
Bit rate : 53 b/s
Count of elements : 2060
Stream size : 59.5 KiB (0%)
Language : Spanish
Default : No
Forced : No

Text #10
ID : 13
Format : UTF-8
Codec ID : S_TEXT/UTF8
Codec ID/Info : UTF-8 Plain Text
Duration : 2 h 30 min
Bit rate : 52 b/s
Count of elements : 2073
Stream size : 58.4 KiB (0%)
Language : Spanish
Default : No
Forced : No

Text #11
ID : 14
Format : UTF-8
Codec ID : S_TEXT/UTF8
Codec ID/Info : UTF-8 Plain Text
Duration : 2 h 31 min
Bit rate : 54 b/s
Count of elements : 1997
Stream size : 60.1 KiB (0%)
Language : Finnish
Default : No
Forced : No

Text #12
ID : 15
Format : UTF-8
Codec ID : S_TEXT/UTF8
Codec ID/Info : UTF-8 Plain Text
Duration : 2 h 31 min
Bit rate : 57 b/s
Count of elements : 2048
Stream size : 63.1 KiB (0%)
Language : French
Default : No
Forced : No

Text #13
ID : 16
Format : UTF-8
Codec ID : S_TEXT/UTF8
Codec ID/Info : UTF-8 Plain Text
Duration : 2 h 31 min
Bit rate : 84 b/s
Count of elements : 2123
Stream size : 93.6 KiB (0%)
Language : Hebrew
Default : No
Forced : No

Text #14
ID : 17
Format : UTF-8
Codec ID : S_TEXT/UTF8
Codec ID/Info : UTF-8 Plain Text
Duration : 2 h 31 min
Bit rate : 52 b/s
Count of elements : 2195
Stream size : 58.4 KiB (0%)
Language : Hungarian
Default : No
Forced : No

Text #15
ID : 18
Format : UTF-8
Codec ID : S_TEXT/UTF8
Codec ID/Info : UTF-8 Plain Text
Duration : 2 h 31 min
Bit rate : 52 b/s
Count of elements : 2045
Stream size : 57.8 KiB (0%)
Language : Indonesian
Default : No
Forced : No

Text #16
ID : 19
Format : UTF-8
Codec ID : S_TEXT/UTF8
Codec ID/Info : UTF-8 Plain Text
Duration : 2 h 28 min
Bit rate : 54 b/s
Count of elements : 2194
Stream size : 59.3 KiB (0%)
Language : Italian
Default : No
Forced : No

Text #17
ID : 20
Format : UTF-8
Codec ID : S_TEXT/UTF8
Codec ID/Info : UTF-8 Plain Text
Duration : 2 h 31 min
Bit rate : 69 b/s
Count of elements : 2091
Stream size : 77.1 KiB (0%)
Language : Korean
Default : No
Forced : No


75040877537536158989_thumb.png 75011093590351390145_thumb.png 51571648449847591766_thumb.png


游客,如果您要查看本帖隐藏内容请回复





.
回复

使用道具 举报

56

主题

1387

帖子

4015

积分

4K家园VIP

Rank: 9Rank: 9Rank: 9

积分
4015
发表于 2021-1-26 19:48:28 | 显示全部楼层
LZ帖子不给力,勉强给回复下吧
回复 支持 反对

使用道具 举报

0

主题

2878

帖子

8813

积分

4K家园VIP

Rank: 9Rank: 9Rank: 9

积分
8813
发表于 2021-1-26 19:53:37 | 显示全部楼层
太好啦&萬分感謝版主的無私發佈分享%
回复 支持 反对

使用道具 举报

1

主题

1474

帖子

4012

积分

4K家园VIP

Rank: 9Rank: 9Rank: 9

积分
4012
发表于 2021-1-27 05:15:31 | 显示全部楼层
楼猪辛苦了,支持一下分享好资源
回复 支持 反对

使用道具 举报

1

主题

1175

帖子

3347

积分

4K家园VIP

Rank: 9Rank: 9Rank: 9

积分
3347
发表于 2021-2-1 16:13:11 来自手机 | 显示全部楼层
看帖要回,回帖才健康,在踩踩,楼主辛苦了!
回复 支持 反对

使用道具 举报

57

主题

1328

帖子

3806

积分

4K家园VIP

Rank: 9Rank: 9Rank: 9

积分
3806
发表于 2021-2-2 21:49:31 | 显示全部楼层
路过 帮顶 嘿嘿
回复 支持 反对

使用道具 举报

0

主题

1535

帖子

4117

积分

4K家园VIP

Rank: 9Rank: 9Rank: 9

积分
4117
发表于 2021-2-6 23:28:50 | 显示全部楼层
好,很好,非常好!
回复 支持 反对

使用道具 举报

0

主题

6

帖子

196

积分

新手上路

Rank: 1

积分
196
发表于 2021-2-7 06:32:12 | 显示全部楼层

楼猪辛苦了,支持一下分享好资源
回复 支持 反对

使用道具 举报

您需要登录后才可以回帖 登录 | 立即注册

本版积分规则

精彩图文
Archiver|手机版|TAG|Sitemap|新帖|专题|联系我们:邮箱: 4kjia.com@gmail.com   

4k家园   ©2019