[4K电影] [4K首发资源]《科拉尔金矿》4K高清下载/大小11.39GB

[复制链接]

370

主题

380

帖子

3709

积分

4K家园VIP

Rank: 9Rank: 9Rank: 9

积分
3709
 楼主| 发表于 2021-1-30 18:30:17 | 显示全部楼层 |阅读模式

9d4af0bb65ec83e6cb8e2da56d341da1.jpg

◎译  名 科拉尔金矿
◎片  名 K.G.F: Chapter 1
◎年  代 2018
◎产  地 印度
◎类  别 剧情 / 动作
◎语  言 埃纳德语 / 泰卢固语
◎上映日期 2018-12-21(印度)
◎IMDb评分 8.7/10 from 16910 users
◎IMDb链接 http://www.imdb.com/title/tt7838252
◎片  长 170分钟
◎导  演 Prashanth Neel
◎编  剧 Prashanth Neel


◎简  介  

  故事发生在80年代早期,K.G.F.——第一章以主人公为中心,他领导了一场反对压迫者的战争ysgou.cc公司科拉尔金矿。


General
Complete name                  : 科拉尔金矿/K.G.F Chapter 1 (2018) [TAMIL UHD 2160p [4K] x265 HEVC DD5.1 (640KBPS) ESub 11.3GB] - MAZE\K.G.F Chapter 1 (2018) [TAMIL UHD 2160p [4K] x265 HEVC DD5.1 (640KBPS) ESub 11.3GB] - MAZE.mkv
Format                         : Matroska
Format version                 : Version 4
File size                      : 11.3 GiB
Duration                       : 2 h 34 min
Overall bit rate               : 10.5 Mb/s
Movie name                     : K.G.F Chapter 1 (2018) Tamil 4K 2160p UHD x265 HEVC DD 5.1 (640KBPS) ESub 11.3GB - MAZE HDRelease
Encoded date                   : UTC 2021-01-29 03:39:05
Writing application            : mkvmerge v45.0.0 ('Heaven in Pennies') 64-bit
Writing library                : libebml v1.3.10 + libmatroska v1.5.2
Cover                          : Yes
IsTruncated                    : Yes
Attachments                    : Cover.jpg

Video
ID                             : 1
Format                         : HEVC
Format/Info                    : High Efficiency Video Coding
Format profile                 : Main@L5@Main
Codec ID                       : V_MPEGH/ISO/HEVC
Duration                       : 2 h 34 min
Bit rate                       : 9 619 kb/s
Width                          : 3 840 pixels
Height                         : 1 630 pixels
Display aspect ratio           : 2.35:1
Frame rate mode                : Constant
Frame rate                     : 30.000 FPS
Color space                    : YUV
Chroma subsampling             : 4:2:0
Bit depth                      : 8 bits
Bits/(Pixel*Frame)             : 0.051
Stream size                    : 10.4 GiB (92%)
Title                          : MAZE HDRelease
Writing library                : x265 0.0:[Windows][MSVC 1800][64 bit] 8bit
Encoding settings              : cpuid=1050111 / frame-threads=2 / numa-pools=8 / wpp / no-pmode / no-pme / no-psnr / no-ssim / log-level=2 / input-csp=1 / input-res=3840x1630 / interlace=0 / total-frames=0 / level-idc=0 / high-tier=1 / uhd-bd=0 / ref=1 / no-allow-non-conformance / repeat-headers / annexb / no-aud / no-hrd / info / hash=0 / no-temporal-layers / no-open-gop / min-keyint=1 / keyint=30 / bframes=0 / b-adapt=0 / no-b-pyramid / bframe-bias=0 / rc-lookahead=1 / lookahead-slices=8 / scenecut=0 / no-intra-refresh / ctu=32 / min-cu-size=16 / no-rect / no-amp / max-tu-size=32 / tu-inter-depth=1 / tu-intra-depth=1 / limit-tu=0 / rdoq-level=0 / dynamic-rd=0.00 / no-ssim-rd / no-signhide / no-tskip / nr-intra=0 / nr-inter=0 / no-constrained-intra / strong-intra-smoothing / max-merge=2 / limit-refs=0 / no-limit-modes / me=0 / subme=0 / merange=25 / temporal-mvp / no-weightp / no-weightb / no-analyze-src-pics / no-deblock / no-sao / no-sao-non-deblock / rd=2 / early-skip / rskip / fast-intra / no-tskip-fast / no-cu-lossless / no-b-intra / no-splitrd-skip / rdpenalty=0 / psy-rd=0.00 / psy-rdoq=0.00 / no-rd-refine / analysis-reuse-mode=0 / no-lossless / cbqpoffs=0 / crqpoffs=0 / rc=abr / bitrate=10000 / qcomp=0.60 / qpstep=4 / stats-write=0 / stats-read=0 / ipratio=1.40 / aq-mode=0 / aq-strength=0.00 / no-cutree / zone-count=0 / no-strict-cbr / qg-size=32 / no-rc-grain / qpmax=69 / qpmin=0 / no-const-vbv / sar=0 / overscan=0 / videoformat=5 / range=0 / colorprim=6 / transfer=6 / colormatrix=6 / chromaloc=0 / display-window=0 / max-cll=0,0 / min-luma=0 / max-luma=255 / log2-max-poc-lsb=8 / vui-timing-info / vui-hrd-info / slices=1 / no-opt-qp-pps / no-opt-ref-list-length-pps / no-multi-pass-opt-rps / scenecut-bias=0.05 / no-opt-cu-delta-qp / no-aq-motion / no-hdr / no-hdr-opt / no-dhdr10-opt / analysis-reuse-level=5 / scale-factor=0 / refine-intra=0 / refine-inter=0 / refine-mv=0 / no-limit-sao / ctu-info=0 / no-lowpass-dct / refine-mv-type=0 / copy-pic=1
Language                       : Tamil
Default                        : Yes
Forced                         : No
Color range                    : Limited
Color primaries                : BT.601 NTSC
Transfer characteristics       : BT.601
Matrix coefficients            : BT.601

Audio
ID                             : 2
Format                         : AC-3
Format/Info                    : Audio Coding 3
Commercial name                : Dolby Digital
Codec ID                       : A_AC3
Duration                       : 2 h 34 min
Bit rate mode                  : Constant
Bit rate                       : 640 kb/s
Channel(s)                     : 6 channels
Channel layout                 : L R C LFE Ls Rs
Sampling rate                  : 48.0 kHz
Frame rate                     : 31.250 FPS (1536 SPF)
Compression mode               : Lossy
Stream size                    : 708 MiB (6%)
Title                          : MAZE HDRelease
Language                       : Tamil
Service kind                   : Complete Main
Default                        : Yes
Forced                         : No

Text
ID                             : 3
Format                         : UTF-8
Codec ID                       : S_TEXT/UTF8
Codec ID/Info                  : UTF-8 Plain Text
Title                          : MAZE HDRelease
Language                       : English
Default                        : Yes
Forced                         : No

Menu
00:00:00.000                   : :Chapter 01
00:05:00.000                   : :Chapter 02
00:09:59.500                   : :Chapter 03
00:14:59.500                   : :Chapter 04
00:19:59.000                   : :Chapter 05
00:24:59.000                   : :Chapter 06
00:29:58.500                   : :Chapter 07
00:34:58.000                   : :Chapter 08
00:39:58.000                   : :Chapter 09
00:44:57.500                   : :Chapter 10
00:49:57.500                   : :Chapter 11
00:54:57.000                   : :Chapter 12
00:59:56.500                   : :Chapter 13
01:04:56.500                   : :Chapter 14
01:09:56.000                   : :Chapter 15
01:14:56.000                   : :Chapter 16
01:19:55.500                   : :Chapter 17
01:24:55.000                   : :Chapter 18
01:29:55.000                   : :Chapter 19
01:34:54.500                   : :Chapter 20
01:39:54.500                   : :Chapter 21
01:44:54.000                   : :Chapter 22
01:49:53.500                   : :Chapter 23
01:54:53.500                   : :Chapter 24
01:59:53.000                   : :Chapter 25
02:04:53.000                   : :Chapter 26





磁力链接下载:
****此区域为收费内容****    需支付 15 金币后可查看立即购买




.
回复

使用道具 举报

1

主题

1146

帖子

3452

积分

4K家园VIP

Rank: 9Rank: 9Rank: 9

积分
3452
发表于 2021-1-30 18:30:34 | 显示全部楼层
very good
回复 支持 反对

使用道具 举报

0

主题

2878

帖子

8813

积分

4K家园VIP

Rank: 9Rank: 9Rank: 9

积分
8813
发表于 2021-1-30 19:47:47 | 显示全部楼层
太好啦&萬分感謝版主的無私發佈分享%
回复 支持 反对

使用道具 举报

62

主题

1375

帖子

3987

积分

4K家园VIP

Rank: 9Rank: 9Rank: 9

积分
3987
发表于 2021-1-31 15:04:37 | 显示全部楼层
前排,哇咔咔
回复 支持 反对

使用道具 举报

1

主题

1087

帖子

3277

积分

4K家园VIP

Rank: 9Rank: 9Rank: 9

积分
3277
发表于 2021-2-1 00:23:18 | 显示全部楼层
鼎力支持!!
回复 支持 反对

使用道具 举报

3

主题

1511

帖子

4105

积分

4K家园VIP

Rank: 9Rank: 9Rank: 9

积分
4105
发表于 2021-2-1 14:44:02 | 显示全部楼层
向楼主学习
回复 支持 反对

使用道具 举报

0

主题

1198

帖子

3444

积分

4K家园VIP

Rank: 9Rank: 9Rank: 9

积分
3444
发表于 2021-2-1 21:02:27 来自手机 | 显示全部楼层
向楼主学习
回复 支持 反对

使用道具 举报

您需要登录后才可以回帖 登录 | 立即注册

本版积分规则

精彩图文
Archiver|手机版|TAG|Sitemap|新帖|专题|联系我们:邮箱: 4kjia.com@gmail.com   

4k家园   ©2019