[4K记录视频] [国家地理] 阿尔卑斯山之旅(2020)[2160P/MKV/359MB]

[复制链接]

2214

主题

2500

帖子

2万

积分

超级版主

Rank: 8Rank: 8

积分
20589
 楼主| 发表于 2021-2-2 19:34:19 | 显示全部楼层 |阅读模式
阿尔卑斯山之旅(359.9MB)(2020)WEBRip 2160p.mkv_20210202_192400.535.jpg 阿尔卑斯山之旅(359.9MB)(2020)WEBRip 2160p.mkv_20210202_192409.431.jpg 阿尔卑斯山之旅(359.9MB)(2020)WEBRip 2160p.mkv_20210202_192427.759.jpg 阿尔卑斯山之旅(359.9MB)(2020)WEBRip 2160p.mkv_20210202_192437.775.jpg 阿尔卑斯山之旅(359.9MB)(2020)WEBRip 2160p.mkv_20210202_192447.447.jpg 阿尔卑斯山之旅(359.9MB)(2020)WEBRip 2160p.mkv_20210202_192510.815.jpg

有关信息
标题:阿尔卑斯山之旅
发行年份: 2020
国家/地区:德国
时长: 00 : 03 : 12
类型: 物种
导演:蒂姆·罗斯金

关于电影:

         在2020年的全球大流行中,我们决定进行阿尔卑斯山公路旅行。


General
Complete name                  : 国家地理\阿尔卑斯山之旅(359.9MB)(2020)WEBRip 2160p.mkv
Format                         : Matroska
Format version                 : Version 4
File size                      : 360 MiB
Duration                       : 3 min 12 s
Overall bit rate               : 15.7 Mb/s
Encoded date                   : UTC 2021-01-24 21:24:47
Writing application            : mkvmerge v52.0.0 ('Secret For The Mad') 64-bit
Writing library                : libebml v1.4.1 + libmatroska v1.6.2

Video
ID                             : 1
Format                         : AVC
Format/Info                    : Advanced Video Codec
Format profile                 : High@L5.2
Format settings                : CABAC / 5 Ref Frames
Format settings, CABAC         : Yes
Format settings, Reference fra : 5 frames
Codec ID                       : V_MPEG4/ISO/AVC
Duration                       : 3 min 12 s
Bit rate                       : 15.4 Mb/s
Width                          : 3 840 pixels
Height                         : 1 630 pixels
Display aspect ratio           : 2.35:1
Frame rate mode                : Constant
Frame rate                     : 25.000 FPS
Color space                    : YUV
Chroma subsampling             : 4:2:0
Bit depth                      : 8 bits
Scan type                      : Progressive
Bits/(Pixel*Frame)             : 0.099
Stream size                    : 354 MiB (98%)
Writing library                : x264 core 161 r10 4121277
Encoding settings              : cabac=1 / ref=5 / deblock=1:0:0 / analyse=0x3:0x113 / me=hex / subme=8 / psy=1 / psy_rd=1.00:0.00 / mixed_ref=1 / me_range=16 / chroma_me=1 / trellis=2 / 8x8dct=1 / cqm=0 / deadzone=21,11 / fast_pskip=1 / chroma_qp_offset=-2 / threads=48 / lookahead_threads=8 / sliced_threads=0 / nr=0 / decimate=1 / interlaced=0 / bluray_compat=0 / stitchable=1 / constrained_intra=0 / bframes=3 / b_pyramid=2 / b_adapt=2 / b_bias=0 / direct=3 / weightb=1 / open_gop=0 / weightp=2 / keyint=infinite / keyint_min=25 / scenecut=40 / intra_refresh=0 / rc_lookahead=50 / rc=crf / mbtree=1 / crf=20.0 / qcomp=0.60 / qpmin=5 / qpmax=69 / qpstep=4 / vbv_maxrate=24200 / vbv_bufsize=66000 / crf_max=0.0 / nal_hrd=none / filler=0 / ip_ratio=1.40 / aq=1:1.00
Default                        : Yes
Forced                         : No
Color range                    : Limited
Color primaries                : BT.709
Transfer characteristics       : BT.709
Matrix coefficients            : BT.709

Audio
ID                             : 2
Format                         : AAC LC
Format/Info                    : Advanced Audio Codec Low Complexity
Codec ID                       : A_AAC-2
Duration                       : 3 min 12 s
Bit rate                       : 253 kb/s
Channel(s)                     : 2 channels
Channel layout                 : L R
Sampling rate                  : 48.0 kHz
Frame rate                     : 46.875 FPS (1024 SPF)
Compression mode               : Lossy
Stream size                    : 5.81 MiB (2%)
Default                        : Yes
Forced                         : No



阿尔卑斯山之旅(359.9MB)(2020)WEBRip 2160p.torrent (15.07 KB, 售价: 15 金币)
回复

使用道具 举报

0

主题

1198

帖子

3608

积分

4K家园VIP

Rank: 9Rank: 9Rank: 9

积分
3608
发表于 2021-2-2 19:34:28 | 显示全部楼层
体验下4K版的
回复 支持 反对

使用道具 举报

0

主题

2826

帖子

8739

积分

4K家园VIP

Rank: 9Rank: 9Rank: 9

积分
8739
发表于 2021-2-2 22:30:30 | 显示全部楼层
太好啦&萬分感謝版主的無私發佈分享%
回复 支持 反对

使用道具 举报

1

主题

1137

帖子

3429

积分

4K家园VIP

Rank: 9Rank: 9Rank: 9

积分
3429
发表于 2021-2-3 07:17:05 | 显示全部楼层
高手云集 果断围观
回复 支持 反对

使用道具 举报

52

主题

1321

帖子

3793

积分

4K家园VIP

Rank: 9Rank: 9Rank: 9

积分
3793
发表于 2021-2-5 21:55:49 | 显示全部楼层
试试先,好用再说
回复 支持 反对

使用道具 举报

0

主题

5

帖子

18

积分

新手上路

Rank: 1

积分
18
发表于 2021-2-6 00:51:29 来自手机 | 显示全部楼层
非常好
回复

使用道具 举报

0

主题

1159

帖子

3489

积分

4K家园VIP

Rank: 9Rank: 9Rank: 9

积分
3489
发表于 2021-2-6 03:19:35 来自手机 | 显示全部楼层
撸过
回复 支持 反对

使用道具 举报

55

主题

1318

帖子

3808

积分

4K家园VIP

Rank: 9Rank: 9Rank: 9

积分
3808
发表于 2021-2-6 10:46:10 | 显示全部楼层
谢谢楼主
回复 支持 反对

使用道具 举报

0

主题

324

帖子

1119

积分

注册会员

Rank: 2

积分
1119
发表于 2021-2-8 14:06:29 | 显示全部楼层
感谢楼主分享
回复 支持 反对

使用道具 举报

0

主题

31

帖子

81

积分

新手上路

Rank: 1

积分
81
发表于 6 天前 | 显示全部楼层
右旋楼主
回复

使用道具 举报

您需要登录后才可以回帖 登录 | 立即注册

本版积分规则

精彩图文
Archiver|手机版|TAG|Sitemap|新帖|专题|联系我们:邮箱: 4kjia.com@gmail.com   

4k家园   ©2019