[4K电影] [4K首发资源]《麻辣教授/师父》4K高清下载/大小14.80GB

[复制链接]

319

主题

329

帖子

3391

积分

4K家园VIP

Rank: 9Rank: 9Rank: 9

积分
3391
 楼主| 发表于 2021-2-3 21:32:53 | 显示全部楼层 |阅读模式
本帖最后由 最爱4K哟 于 2021-2-4 12:55 编辑

MASTER-4K.jpg

类型: 动作 / 惊悚
制片国家/地区: 印度
语言: 泰米尔语
上映日期: 2021-01-14(印度)
片长: 159分钟
又名: Thalapathy 64 / 师父

导演: Lokesh Kanagaraj
编剧: Lokesh Kanagaraj / Rathna Kumar / Pon Parthiban
主演: 维杰/
        维杰·西图帕提
        马拉维卡·莫哈南
        安德列·杰里迈亚
        纳赛尔


剧情简介:

  一个酗酒的教授被送到一所少年学校,在那里他与一个歹徒发生冲突,歹徒利用学校的孩子从事犯罪活动。

General

Complete name                  : Master (2021) [Tam+Tel+Mal UHD 2160p [4K] x265 HEVC DD5.1 (640KBPS) MSub 15GB] - MAZE\Master (2021) [TAMIL+TELUGU+MALAYALAM UHD 2160p [4K] x265 HEVC DD5.1 (640KBPS) MSub 15GB] - MAZE.mkv
Format                         : Matroska
Format version                 : Version 4
File size                      : 14.8 GiB
Duration                       : 2 h 57 min
Overall bit rate               : 11.9 Mb/s
Movie name                     : Master (2021) Tamil+Telugu+Malayalam 4K 2160p UHD x265 HEVC DD 5.1 (640KBPS) MultiSub 15GB - MAZE HDRelease
Encoded date                   : UTC 2021-02-01 09:24:20
Writing application            : mkvmerge v45.0.0 ('Heaven in Pennies') 64-bit
Writing library                : libebml v1.3.10 + libmatroska v1.5.2
Cover                          : Yes
IsTruncated                    : Yes
Attachments                    : Cover.jpg

Video
ID                             : 1
Format                         : HEVC
Format/Info                    : High Efficiency Video Coding
Format profile                 : Main@L5@Main
Codec ID                       : V_MPEGH/ISO/HEVC
Duration                       : 2 h 57 min
Bit rate                       : 9 765 kb/s
Width                          : 3 840 pixels
Height                         : 1 630 pixels
Display aspect ratio           : 2.35:1
Frame rate mode                : Constant
Frame rate                     : 30.000 FPS
Color space                    : YUV
Chroma subsampling             : 4:2:0
Bit depth                      : 8 bits
Bits/(Pixel*Frame)             : 0.052
Stream size                    : 12.1 GiB (82%)
Title                          : MAZE HDRelease
Writing library                : x265 0.0:[Windows][MSVC 1800][64 bit] 8bit
Encoding settings              : cpuid=1050111 / frame-threads=2 / numa-pools=8 / wpp / no-pmode / no-pme / no-psnr / no-ssim / log-level=2 / input-csp=1 / input-res=3840x1630 / interlace=0 / total-frames=0 / level-idc=0 / high-tier=1 / uhd-bd=0 / ref=1 / no-allow-non-conformance / repeat-headers / annexb / no-aud / no-hrd / info / hash=0 / no-temporal-layers / no-open-gop / min-keyint=1 / keyint=30 / bframes=0 / b-adapt=0 / no-b-pyramid / bframe-bias=0 / rc-lookahead=1 / lookahead-slices=8 / scenecut=0 / no-intra-refresh / ctu=32 / min-cu-size=16 / no-rect / no-amp / max-tu-size=32 / tu-inter-depth=1 / tu-intra-depth=1 / limit-tu=0 / rdoq-level=0 / dynamic-rd=0.00 / no-ssim-rd / no-signhide / no-tskip / nr-intra=0 / nr-inter=0 / no-constrained-intra / strong-intra-smoothing / max-merge=2 / limit-refs=0 / no-limit-modes / me=0 / subme=0 / merange=25 / temporal-mvp / no-weightp / no-weightb / no-analyze-src-pics / no-deblock / no-sao / no-sao-non-deblock / rd=2 / early-skip / rskip / fast-intra / no-tskip-fast / no-cu-lossless / no-b-intra / no-splitrd-skip / rdpenalty=0 / psy-rd=0.00 / psy-rdoq=0.00 / no-rd-refine / analysis-reuse-mode=0 / no-lossless / cbqpoffs=0 / crqpoffs=0 / rc=abr / bitrate=10000 / qcomp=0.60 / qpstep=4 / stats-write=0 / stats-read=0 / ipratio=1.40 / aq-mode=0 / aq-strength=0.00 / no-cutree / zone-count=0 / no-strict-cbr / qg-size=32 / no-rc-grain / qpmax=69 / qpmin=0 / no-const-vbv / sar=0 / overscan=0 / videoformat=5 / range=0 / colorprim=6 / transfer=6 / colormatrix=6 / chromaloc=0 / display-window=0 / max-cll=0,0 / min-luma=0 / max-luma=255 / log2-max-poc-lsb=8 / vui-timing-info / vui-hrd-info / slices=1 / no-opt-qp-pps / no-opt-ref-list-length-pps / no-multi-pass-opt-rps / scenecut-bias=0.05 / no-opt-cu-delta-qp / no-aq-motion / no-hdr / no-hdr-opt / no-dhdr10-opt / analysis-reuse-level=5 / scale-factor=0 / refine-intra=0 / refine-inter=0 / refine-mv=0 / no-limit-sao / ctu-info=0 / no-lowpass-dct / refine-mv-type=0 / copy-pic=1
Language                       : Tamil
Default                        : Yes
Forced                         : No
Color range                    : Limited
Color primaries                : BT.601 NTSC
Transfer characteristics       : BT.601
Matrix coefficients            : BT.601

Audio #1
ID                             : 2
Format                         : AC-3
Format/Info                    : Audio Coding 3
Commercial name                : Dolby Digital
Codec ID                       : A_AC3
Duration                       : 2 h 57 min
Bit rate mode                  : Constant
Bit rate                       : 640 kb/s
Channel(s)                     : 6 channels
Channel layout                 : L R C LFE Ls Rs
Sampling rate                  : 48.0 kHz
Frame rate                     : 31.250 FPS (1536 SPF)
Compression mode               : Lossy
Stream size                    : 813 MiB (5%)
Title                          : MAZE HDRelease
Language                       : Tamil
Service kind                   : Complete Main
Default                        : Yes
Forced                         : No

Audio #2
ID                             : 3
Format                         : AC-3
Format/Info                    : Audio Coding 3
Commercial name                : Dolby Digital
Codec ID                       : A_AC3
Duration                       : 2 h 57 min
Bit rate mode                  : Constant
Bit rate                       : 640 kb/s
Channel(s)                     : 6 channels
Channel layout                 : L R C LFE Ls Rs
Sampling rate                  : 44.1 kHz
Frame rate                     : 28.711 FPS (1536 SPF)
Compression mode               : Lossy
Stream size                    : 813 MiB (5%)
Title                          : MAZE HDRelease
Language                       : Telugu
Service kind                   : Complete Main
Default                        : No
Forced                         : No

Audio #3
ID                             : 4
Format                         : AC-3
Format/Info                    : Audio Coding 3
Commercial name                : Dolby Digital
Codec ID                       : A_AC3
Duration                       : 2 h 57 min
Bit rate mode                  : Constant
Bit rate                       : 640 kb/s
Channel(s)                     : 6 channels
Channel layout                 : L R C LFE Ls Rs
Sampling rate                  : 44.1 kHz
Frame rate                     : 28.711 FPS (1536 SPF)
Compression mode               : Lossy
Stream size                    : 813 MiB (5%)
Title                          : MAZE HDRelease
Language                       : Malayalam
Service kind                   : Complete Main
Default                        : No
Forced                         : No

Text #1
ID                             : 5
Format                         : UTF-8
Codec ID                       : S_TEXT/UTF8
Codec ID/Info                  : UTF-8 Plain Text
Title                          : MAZE HDRelease
Language                       : English
Default                        : Yes
Forced                         : No

Text #2
ID                             : 6
Format                         : UTF-8
Codec ID                       : S_TEXT/UTF8
Codec ID/Info                  : UTF-8 Plain Text
Title                          : MAZE HDRelease
Language                       : Arabic
Default                        : No
Forced                         : No

Text #3
ID                             : 7
Format                         : UTF-8
Codec ID                       : S_TEXT/UTF8
Codec ID/Info                  : UTF-8 Plain Text
Title                          : MAZE HDRelease
Language                       : Dutch
Default                        : No
Forced                         : No

Text #4
ID                             : 8
Format                         : UTF-8
Codec ID                       : S_TEXT/UTF8
Codec ID/Info                  : UTF-8 Plain Text
Title                          : MAZE HDRelease
Language                       : French
Default                        : No
Forced                         : No

Text #5
ID                             : 9
Format                         : UTF-8
Codec ID                       : S_TEXT/UTF8
Codec ID/Info                  : UTF-8 Plain Text
Title                          : MAZE HDRelease
Language                       : German
Default                        : No
Forced                         : No

Text #6
ID                             : 10
Format                         : UTF-8
Codec ID                       : S_TEXT/UTF8
Codec ID/Info                  : UTF-8 Plain Text
Title                          : MAZE HDRelease
Language                       : Hindi
Default                        : No
Forced                         : No

Text #7
ID                             : 11
Format                         : UTF-8
Codec ID                       : S_TEXT/UTF8
Codec ID/Info                  : UTF-8 Plain Text
Title                          : MAZE HDRelease
Language                       : Italian
Default                        : No
Forced                         : No

Text #8
ID                             : 12
Format                         : UTF-8
Codec ID                       : S_TEXT/UTF8
Codec ID/Info                  : UTF-8 Plain Text
Title                          : MAZE HDRelease
Language                       : Malay
Default                        : No
Forced                         : No

Menu
00:00:00.000                   : :Start The Movie - MAZE HDRelease
00:26:50.667                   : :Vaathi Coming [Songs] - MAZE HDRelease
00:31:25.334                   : :Continue The Movie - MAZE HDRelease
01:03:32.500                   : :Kutti Story [Songs] - MAZE HDRelease
01:08:26.000                   : :Continue The Movie - MAZE HDRelease
01:16:51.000                   : ona Pogattum [Songs] - MAZE HDRelease
01:18:11.500                   : :Continue The Movie - MAZE HDRelease
01:36:34.000                   : uit Pannuda [Songs] - MAZE HDRelease
01:37:49.000                   : :Continue The Movie - MAZE HDRelease
01:40:28.500                   : :Vaathi Raid [Songs] - MAZE HDRelease
01:43:10.500                   : :Continue The Movie - MAZE HDRelease
01:52:15.000                   : :Vaathi Kabaddi [Songs] - MAZE HDRelease
01:57:22.500                   : :Continue The Movie - MAZE HDRelease
02:01:20.500                   : :Andha Kanna Paathaakaa [Songs] - MAZE HDRelease
02:03:45.500                   : :Continue The Movie - MAZE HDRelease
02:12:44.500                   : olakatum Para Para [Songs] - MAZE HDRelease
02:16:09.500                   : :Continue The Movie - MAZE HDRelease
02:53:26.000                   : :The END of The Movie - MAZE HDRelease




游客,如果您要查看本帖隐藏内容请回复





.


回复

使用道具 举报

5

主题

1292

帖子

3708

积分

4K家园VIP

Rank: 9Rank: 9Rank: 9

积分
3708
发表于 2021-2-3 21:34:17 | 显示全部楼层
小白一个 顶一下
回复 支持 反对

使用道具 举报

1

主题

16

帖子

1903

积分

4K家园VIP

Rank: 9Rank: 9Rank: 9

积分
1903
发表于 2021-2-3 21:42:25 | 显示全部楼层
没有字幕,印度电影都不好找到字幕
回复 支持 反对

使用道具 举报

0

主题

2695

帖子

8530

积分

4K家园VIP

Rank: 9Rank: 9Rank: 9

积分
8530
发表于 2021-2-3 22:43:46 | 显示全部楼层
太好啦&萬分感謝版主的無私發佈分享%
回复 支持 反对

使用道具 举报

55

主题

1325

帖子

3829

积分

4K家园VIP

Rank: 9Rank: 9Rank: 9

积分
3829
发表于 2021-2-5 13:05:59 | 显示全部楼层
为保住菊花,这个一定得回复!
回复 支持 反对

使用道具 举报

0

主题

319

帖子

1101

积分

注册会员

Rank: 2

积分
1101
发表于 2021-2-6 22:24:57 | 显示全部楼层

谢谢楼主分享
回复 支持 反对

使用道具 举报

1

主题

1185

帖子

3581

积分

4K家园VIP

Rank: 9Rank: 9Rank: 9

积分
3581
发表于 2021-2-9 03:23:44 | 显示全部楼层
very good
回复 支持 反对

使用道具 举报

0

主题

1

帖子

6

积分

新手上路

Rank: 1

积分
6
发表于 2021-2-9 08:39:28 | 显示全部楼层
听说不错,看下
回复 支持 反对

使用道具 举报

4

主题

1066

帖子

3226

积分

4K家园VIP

Rank: 9Rank: 9Rank: 9

积分
3226
发表于 2021-2-10 10:35:01 | 显示全部楼层
报告!别开枪,我就是路过来看看的。。。
回复 支持 反对

使用道具 举报

4

主题

1252

帖子

3628

积分

中级会员

Rank: 4

积分
3628
发表于 2021-2-10 12:44:55 | 显示全部楼层
为毛老子总也抢不到沙发?!!
回复 支持 反对

使用道具 举报

您需要登录后才可以回帖 登录 | 立即注册

本版积分规则

精彩图文
Archiver|手机版|TAG|Sitemap|新帖|专题|联系我们:邮箱: 4kjia.com@gmail.com   

4k家园   ©2019