[4K电影] [4K首发资源]《鸣鸟/末世戰疫:鳴鳥檔案(台)》4K高清下载

[复制链接]

359

主题

369

帖子

3636

积分

4K家园VIP

Rank: 9Rank: 9Rank: 9

积分
3636
 楼主| 发表于 2021-2-22 20:20:10 | 显示全部楼层 |阅读模式
本帖最后由 最爱4K哟 于 2021-2-23 20:55 编辑

p2629853096.webp_副本.jpg

◎译  名 鸣鸟/末世戰疫:鳴鳥檔案(台)
◎片  名 Songbird
◎年  代 2020
◎产  地 美国
◎类  别 剧情 / 喜剧 / 爱情 / 惊悚
◎语  言 英语
◎上映日期 2020-12-11(美国)
◎IMDb评分  4.3/10 from 1259 users
◎IMDb链接  https://www.imdb.com/title/tt12592252/
◎豆瓣评分 4.1/10 from 116 users
◎豆瓣链接 https://movie.douban.com/subject/35075009/
◎导  演 亚当·梅森 Adam Mason
◎编  剧 亚当·梅森 Adam Mason / 西蒙·博伊斯 Simon Boyes
◎主  演 K·J·阿帕 K.J. Apa
       索菲亚·卡尔森 Sofia Carson
       克雷格·罗宾森 Craig Robinson
       布莱德利·惠特福德 Bradley Whitford
       彼得·斯特曼 Peter Stormare
       艾尔皮迪娅·卡里洛 Elpidia Carrillo
       亚历珊德拉·达达里奥 Alexandra Daddario
       莉亚·麦克休 Lia McHugh
       保罗·沃尔特·豪泽 Paul Walter Hauser
       黛米·摩尔 Demi Moore
       保罗·斯隆 Paul Sloan
       安德鲁·霍华德 Andrew Howard
       米歇尔·沃特 Michole White
       达瑞·因戈尔夫松 Darri Ingolfsson
       伊恩·邓肯 Ian Duncan
       苏珊·本尼特 Susan Bennett
       路易斯·格里菲斯 Louise Griffiths
       马特·诺兰 Matt Nolan
       Jason Gray
       伊桑·乔什·李 Ethan Josh Lee
       杰米·麦克布莱德 Jamie McBride
       蒂姆·米库勒基 Tim Mikulecky
       Ben Scott
       珍娜·奥尔特加 Jenna Ortega


◎简  介

  公元2024年,一种名为COVID-23的病毒肆虐全球,突变后的病毒致死率超过50%,全球迈入大封锁第四年。美国政府为了控制疫情,强制将所有染疫的美国人送往名叫「Q区」的隔离营,以非人道的手段进行管理。在这绝望的世界,对病毒免疫的快递员尼可(K·J·阿帕 饰)与女孩莎拉(索菲亚·卡尔森 饰)坠入了爱河,两人却因为居家隔离的缘故无法相见。但当莎拉意外接触确诊者即将被强制送往隔离营,尼可决定不惜一切代价,穿梭在杳无人烟的洛杉矶街头只为了找出任何可以拯救莎拉的方法…


General
Complete name                  : 鸣鸟(9.53GB)Songbird.2020.AMZN.HDR.WEB-DL.2160p.mkv
Format                         : Matroska
Format version                 : Version 4
File size                      : 9.52 GiB
Duration                       : 1 h 24 min
Overall bit rate               : 16.0 Mb/s
Encoded date                   : UTC 2021-02-22 09:35:12
Writing application            : mkvmerge v8.3.0 ('Over the Horizon') 64bit
Writing library                : libebml v1.3.1 + libmatroska v1.4.2
IsTruncated                    : Yes

Video
ID                             : 1
Format                         : HEVC
Format/Info                    : High Efficiency Video Coding
Format profile                 : Main 10@L5@Main
Codec ID                       : V_MPEGH/ISO/HEVC
Duration                       : 1 h 24 min
Bit rate                       : 14.7 Mb/s
Width                          : 3 840 pixels
Height                         : 2 160 pixels
Display aspect ratio           : 16:9
Frame rate mode                : Constant
Frame rate                     : 23.976 (24000/1001) FPS
Color space                    : YUV
Chroma subsampling             : 4:2:0 (Type 2)
Bit depth                      : 10 bits
Bits/(Pixel*Frame)             : 0.074
Stream size                    : 8.72 GiB (92%)
Default                        : Yes
Forced                         : No
Color range                    : Limited
Color primaries                : BT.2020
Transfer characteristics       : PQ
Matrix coefficients            : BT.2020 non-constant
Maximum Content Light Level    : 486 cd/m2
Maximum Frame-Average Light Le : 389 cd/m2

Audio #1
ID                             : 2
Format                         : AC-3
Format/Info                    : Audio Coding 3
Commercial name                : Dolby Digital
Codec ID                       : A_AC3
Duration                       : 1 h 24 min
Bit rate mode                  : Constant
Bit rate                       : 384 kb/s
Channel(s)                     : 6 channels
Channel layout                 : L R C LFE Ls Rs
Sampling rate                  : 48.0 kHz
Frame rate                     : 31.250 FPS (1536 SPF)
Compression mode               : Lossy
Delay relative to video        : 864 ms
Stream size                    : 233 MiB (2%)
Title                          : DUB (iTunes)
Language                       : Russian
Service kind                   : Complete Main
Default                        : Yes
Forced                         : No

Audio #2
ID                             : 3
Format                         : E-AC-3
Format/Info                    : Enhanced AC-3
Commercial name                : Dolby Digital Plus
Codec ID                       : A_EAC3
Duration                       : 1 h 24 min
Bit rate mode                  : Constant
Bit rate                       : 640 kb/s
Channel(s)                     : 6 channels
Channel layout                 : L R C LFE Ls Rs
Sampling rate                  : 48.0 kHz
Frame rate                     : 31.250 FPS (1536 SPF)
Compression mode               : Lossy
Stream size                    : 389 MiB (4%)
Title                          : Original
Language                       : English
Service kind                   : Complete Main
Default                        : No
Forced                         : No

Text #1
ID                             : 4
Format                         : UTF-8
Codec ID                       : S_TEXT/UTF8
Codec ID/Info                  : UTF-8 Plain Text
Title                          : Forced
Language                       : Russian
Default                        : Yes
Forced                         : No

Text #2
ID                             : 5
Format                         : UTF-8
Codec ID                       : S_TEXT/UTF8
Codec ID/Info                  : UTF-8 Plain Text
Title                          : Full
Language                       : Ukrainian
Default                        : No
Forced                         : No

Text #3
ID                             : 6
Format                         : UTF-8
Codec ID                       : S_TEXT/UTF8
Codec ID/Info                  : UTF-8 Plain Text
Title                          : SDH
Language                       : English
Default                        : No
Forced                         : No

Songbird.2020.AMZN.HDR.WEB-DL.2160p.mkv_20210223_204806.636.jpg Songbird.2020.AMZN.HDR.WEB-DL.2160p.mkv_20210223_205111.714.jpg Songbird.2020.AMZN.HDR.WEB-DL.2160p.mkv_20210223_205454.609.jpg Songbird.2020.AMZN.HDR.WEB-DL.2160p.mkv_20210223_205044.013.jpg


游客,如果您要查看本帖隐藏内容请回复



.
回复

使用道具 举报

1

主题

1236

帖子

3512

积分

4K家园VIP

Rank: 9Rank: 9Rank: 9

积分
3512
发表于 2021-2-22 20:26:14 来自手机 | 显示全部楼层
围观 围观 沙发在哪里!!!
回复 支持 反对

使用道具 举报

0

主题

2818

帖子

8716

积分

4K家园VIP

Rank: 9Rank: 9Rank: 9

积分
8716
发表于 2021-2-22 20:52:58 | 显示全部楼层
太好啦&萬分感謝版主的無私發佈分享%
回复 支持 反对

使用道具 举报

2

主题

1181

帖子

3397

积分

4K家园VIP

Rank: 9Rank: 9Rank: 9

积分
3397
发表于 2021-2-23 00:42:15 | 显示全部楼层
顶顶更健康
回复 支持 反对

使用道具 举报

0

主题

5

帖子

18

积分

新手上路

Rank: 1

积分
18
发表于 2021-2-23 10:11:05 | 显示全部楼层
多谢分享
回复

使用道具 举报

1

主题

1156

帖子

3490

积分

4K家园VIP

Rank: 9Rank: 9Rank: 9

积分
3490
发表于 2021-2-23 13:12:07 | 显示全部楼层
支持你哈...................................
回复 支持 反对

使用道具 举报

0

主题

8

帖子

36

积分

新手上路

Rank: 1

积分
36
发表于 2021-2-23 14:37:32 | 显示全部楼层
谢谢分享
回复

使用道具 举报

0

主题

14

帖子

47

积分

新手上路

Rank: 1

积分
47
发表于 2021-2-23 20:15:53 | 显示全部楼层
感谢楼主精彩分享。
回复 支持 反对

使用道具 举报

2

主题

1124

帖子

3388

积分

4K家园VIP

Rank: 9Rank: 9Rank: 9

积分
3388
发表于 2021-2-23 23:00:50 | 显示全部楼层
楼主呀,,,您太有才了。。。
回复 支持 反对

使用道具 举报

0

主题

9

帖子

45

积分

新手上路

Rank: 1

积分
45
发表于 2021-2-26 23:26:10 | 显示全部楼层

太好啦&萬分感謝版主的無私發佈分享%
回复 支持 反对

使用道具 举报

您需要登录后才可以回帖 登录 | 立即注册

本版积分规则

精彩图文
Archiver|手机版|TAG|Sitemap|新帖|专题|联系我们:邮箱: 4kjia.com@gmail.com   

4k家园   ©2019