[4K电影] 《心理游戏/致命游戏(俄版)》4K高清版本下载/45.73GB

[复制链接]

803

主题

827

帖子

1万

积分

超级版主

Rank: 8Rank: 8

积分
10707
 楼主| 发表于 2021-3-29 10:19:13 | 显示全部楼层 |阅读模式
QQ图片20210301191701_副本_meitu_4.jpg

◎译  名 心理游戏/生日历险/游戏/致命游戏
◎片  名 The Game
◎年  代 1997
◎产  地 美国
◎类  别 剧情/动作/悬疑/惊悚
◎语  言 英语/粤语/德语
◎上映日期 1997-09-03(纽约首映)/1997-09-12(美国)
◎IMDb评分  7.8/10 from 336,147 users
◎IMDb链接  https://www.imdb.com/title/tt0119174/
◎豆瓣评分 7.7/10 from 84902 users
◎豆瓣链接 https://douban.com/subject/1296384/
◎片  长 129 分钟
◎导  演 大卫·芬奇 David Fincher
◎编  剧 约翰·布兰卡托 John D. Brancato / 迈克尔·费里斯 Michael Ferris
◎主  演 迈克尔·道格拉斯 Michael Douglas
       西恩·潘 Sean Penn
       黛博拉·卡拉·安格 Deborah Kara Unger
       詹姆斯·瑞布霍恩 James Rebhorn
       卡罗尔·贝克 Carroll Baker
       哈里逊·杨 Harrison Young
       Daniel Schorr
       约翰·阿普雷亚 John Aprea
       小马克·布恩 Mark Boone Junior
       斯派克·琼斯 Spike Jonze
       约翰·卡西尼 John Cassini
       哈里斯·萨维德斯 Harris Savides
       童自荣 Zirong Tong
       安娜·卡塔莉娜 Anna Katarina
       琳达·曼兹 Linda Manz
       Jay Gordon
       鲍勃·斯蒂芬森 Bob Stephenson
       Terence Ford
       汤米·弗拉纳根 Tommy Flanagan
       Elizabeth Dennehy
       Gypsy Boots
       格里·贝克尔 Gerry Becker
       阿明·缪勒-斯塔尔 Armin Mueller-Stahl
       彼得·多纳特 Peter Donat
       John Hammil
       Keena Turner
       金伯利·罗素 Kimberly Russell
       冈本玉二 Yuji Okumoto
       Jarion Monroe
       乔治·马奎尔 George Maguire
       查尔斯·马丁内斯 Charles Martinet
       杰克·基欧 Jack Kehoe


◎简  介


  亿万富翁范先生(迈克尔·道格拉斯)在四十八岁生日时收到弟弟(西恩·潘)的一份礼物,CRS俱乐部的游戏卡。游戏的内容为迈克尔量身定做,直指他内心深处的童年阴影和婚姻创伤。
  迈克尔由于好奇,渐渐投入到游戏中去,并由此结识了女侍应生克莉丝汀(黛博拉·卡拉·安格)。可是在种种恶作剧后,迈 克尔发现这一系列离奇事件并不是简单的游戏,他的生活甚至生命正被拖向深渊。  
  当生命不断受到威胁,迈克尔一次次的告诉自己,这只是个游戏。然而游戏的策划者正把他引向何方?父亲48岁生日时坠楼自杀的场景不断在他头脑里闪现……


Media Info
General
Complete name : 心理游戏(45.73GB)Game, The.1997.WEB-DL.AI_UPSCALE_3840x2160_alq-8_SDR_Finalalang.mkv
Format : Matroska
Format version : Version 4
File size : 45.7 GiB
Duration : 2 h 8 min
Overall bit rate : 50.9 Mb/s
Movie name : The Game (1997)
Encoded date : UTC 2020-12-21 19:50:28
Writing application : mkvmerge v51.0.0 ('I Wish') 64-bit
Writing library : libebml v1.4.0 + libmatroska v1.6.2
Cover : Yes
Attachments : cover

Video
ID : 1
Format : AVC
Format/Info : Advanced Video Codec
Format profile : Baseline@L5.1
Format settings : 1 Ref Frames
Format settings, CABAC : No
Format settings, Reference fra : 1 frame
Format settings, GOP : M=1, N=12
Codec ID : V_MPEG4/ISO/AVC
Duration : 2 h 8 min
Bit rate : 41.4 Mb/s
Width : 3 840 pixels
Height : 2 160 pixels
Display aspect ratio : 16:9
Frame rate mode : Constant
Frame rate : 23.976 (24000/1001) FPS
Color space : YUV
Chroma subsampling : 4:2:0
Bit depth : 8 bits
Scan type : Progressive
Bits/(Pixel*Frame) : 0.208
Stream size : 37.2 GiB (81%)
Writing library : x264 core 157 r2970 5493be8
Encoding settings : cabac=0 / ref=1 / deblock=0:0:0 / analyse=0:0 / me=dia / subme=0 / psy=1 / psy_rd=1.00:0.00 / mixed_ref=0 / me_range=16 / chroma_me=1 / trellis=0 / 8x8dct=0 / cqm=0 / deadzone=21,11 / fast_pskip=1 / chroma_qp_offset=0 / threads=8 / lookahead_threads=1 / sliced_threads=0 / nr=0 / decimate=1 / interlaced=0 / bluray_compat=0 / constrained_intra=0 / bframes=0 / weightp=0 / keyint=12 / keyint_min=1 / scenecut=0 / intra_refresh=0 / rc=crf / mbtree=0 / crf=17.0 / qcomp=0.60 / qpmin=0 / qpmax=69 / qpstep=4 / ip_ratio=1.40 / aq=0
Default : Yes
Forced : No
Color range : Limited
Color primaries : BT.709
Transfer characteristics : BT.709
Matrix coefficients : BT.709

Audio #1
ID : 2
Format : DTS
Format/Info : Digital Theater Systems
Codec ID : A_DTS
Duration : 2 h 8 min
Bit rate mode : Constant
Bit rate : 768 kb/s
Channel(s) : 6 channels
Channel layout : C L R Ls Rs LFE
Sampling rate : 48.0 kHz
Frame rate : 93.750 FPS (512 SPF)
Bit depth : 24 bits
Compression mode : Lossy
Stream size : 707 MiB (2%)
Title : MVO Positive
Language : Russian
Default : No
Forced : No

Audio #2
ID : 3
Format : AC-3
Format/Info : Audio Coding 3
Commercial name : Dolby Digital
Codec ID : A_AC3
Duration : 2 h 8 min
Bit rate mode : Constant
Bit rate : 384 kb/s
Channel(s) : 6 channels
Channel layout : L R C LFE Ls Rs
Sampling rate : 48.0 kHz
Frame rate : 31.250 FPS (1536 SPF)
Compression mode : Lossy
Delay relative to video : 300 ms
Stream size : 353 MiB (1%)
Title : Dub
Language : Russian
Service kind : Complete Main
Default : Yes
Forced : Yes

Audio #3
ID : 4
Format : AC-3
Format/Info : Audio Coding 3
Commercial name : Dolby Digital
Codec ID : A_AC3
Duration : 2 h 8 min
Bit rate mode : Constant
Bit rate : 384 kb/s
Channel(s) : 6 channels
Channel layout : L R C LFE Ls Rs
Sampling rate : 48.0 kHz
Frame rate : 31.250 FPS (1536 SPF)
Compression mode : Lossy
Stream size : 353 MiB (1%)
Title : DVO Liga HQ
Language : Russian
Service kind : Complete Main
Default : No
Forced : No

Audio #4
ID : 5
Format : AC-3
Format/Info : Audio Coding 3
Commercial name : Dolby Digital
Codec ID : A_AC3
Duration : 2 h 8 min
Bit rate mode : Constant
Bit rate : 224 kb/s
Channel(s) : 2 channels
Channel layout : L R
Sampling rate : 48.0 kHz
Frame rate : 31.250 FPS (1536 SPF)
Compression mode : Lossy
Stream size : 206 MiB (0%)
Title : MVO AB video
Language : Russian
Service kind : Complete Main
Default : No
Forced : No

Audio #5
ID : 6
Format : AC-3
Format/Info : Audio Coding 3
Commercial name : Dolby Digital
Codec ID : A_AC3
Duration : 2 h 8 min
Bit rate mode : Constant
Bit rate : 192 kb/s
Channel(s) : 2 channels
Channel layout : L R
Sampling rate : 48.0 kHz
Frame rate : 31.250 FPS (1536 SPF)
Compression mode : Lossy
Stream size : 177 MiB (0%)
Title : MVO RTR
Language : Russian
Service kind : Complete Main
Default : No
Forced : No

Audio #6
ID : 7
Format : AC-3
Format/Info : Audio Coding 3
Commercial name : Dolby Digital
Codec ID : A_AC3
Duration : 2 h 8 min
Bit rate mode : Constant
Bit rate : 224 kb/s
Channel(s) : 2 channels
Channel layout : L R
Sampling rate : 48.0 kHz
Frame rate : 31.250 FPS (1536 SPF)
Compression mode : Lossy
Stream size : 206 MiB (0%)
Title : DVO Soyuz video
Language : Russian
Service kind : Complete Main
Default : No
Forced : No

Audio #7
ID : 8
Format : AC-3
Format/Info : Audio Coding 3
Commercial name : Dolby Digital
Codec ID : A_AC3
Duration : 2 h 8 min
Bit rate mode : Constant
Bit rate : 224 kb/s
Channel(s) : 2 channels
Channel layout : L R
Sampling rate : 48.0 kHz
Frame rate : 31.250 FPS (1536 SPF)
Compression mode : Lossy
Stream size : 206 MiB (0%)
Title : DVO NTV+
Language : Russian
Service kind : Complete Main
Default : No
Forced : No

Audio #8
ID : 9
Format : AC-3
Format/Info : Audio Coding 3
Commercial name : Dolby Digital
Codec ID : A_AC3
Duration : 2 h 8 min
Bit rate mode : Constant
Bit rate : 192 kb/s
Channel(s) : 2 channels
Channel layout : L R
Sampling rate : 48.0 kHz
Frame rate : 31.250 FPS (1536 SPF)
Compression mode : Lossy
Stream size : 177 MiB (0%)
Title : DVO REN-TV
Language : Russian
Service kind : Complete Main
Default : No
Forced : No

Audio #9
ID : 10
Format : AC-3
Format/Info : Audio Coding 3
Commercial name : Dolby Digital
Codec ID : A_AC3
Duration : 2 h 8 min
Bit rate mode : Constant
Bit rate : 192 kb/s
Channel(s) : 2 channels
Channel layout : L R
Sampling rate : 48.0 kHz
Frame rate : 31.250 FPS (1536 SPF)
Compression mode : Lossy
Stream size : 177 MiB (0%)
Title : MVO 1 kanal
Language : Russian
Service kind : Complete Main
Default : No
Forced : No

Audio #10
ID : 11
Format : AC-3
Format/Info : Audio Coding 3
Commercial name : Dolby Digital
Codec ID : A_AC3
Duration : 2 h 8 min
Bit rate mode : Constant
Bit rate : 192 kb/s
Channel(s) : 2 channels
Channel layout : L R
Sampling rate : 48.0 kHz
Frame rate : 31.250 FPS (1536 SPF)
Compression mode : Lossy
Stream size : 177 MiB (0%)
Title : DVO SDI
Language : Russian
Service kind : Complete Main
Default : No
Forced : No

Audio #11
ID : 12
Format : DTS
Format/Info : Digital Theater Systems
Codec ID : A_DTS
Duration : 2 h 8 min
Bit rate mode : Constant
Bit rate : 1 509 kb/s
Channel(s) : 6 channels
Channel layout : C L R Ls Rs LFE
Sampling rate : 48.0 kHz
Frame rate : 93.750 FPS (512 SPF)
Bit depth : 24 bits
Compression mode : Lossy
Stream size : 1.36 GiB (3%)
Title : VO Zhivov
Language : Russian
Default : No
Forced : No

Audio #12
ID : 13
Format : DTS
Format/Info : Digital Theater Systems
Codec ID : A_DTS
Duration : 2 h 8 min
Bit rate mode : Constant
Bit rate : 1 509 kb/s
Channel(s) : 6 channels
Channel layout : C L R Ls Rs LFE
Sampling rate : 48.0 kHz
Frame rate : 93.750 FPS (512 SPF)
Bit depth : 24 bits
Compression mode : Lossy
Stream size : 1.36 GiB (3%)
Title : VO Esarev
Language : Russian
Default : No
Forced : No

Audio #13
ID : 14
Format : DTS
Format/Info : Digital Theater Systems
Codec ID : A_DTS
Duration : 2 h 8 min
Bit rate mode : Constant
Bit rate : 1 509 kb/s
Channel(s) : 6 channels
Channel layout : C L R Ls Rs LFE
Sampling rate : 48.0 kHz
Frame rate : 93.750 FPS (512 SPF)
Bit depth : 24 bits
Compression mode : Lossy
Stream size : 1.36 GiB (3%)
Title : VO Gavrilov 2
Language : Russian
Default : No
Forced : No

Audio #14
ID : 15
Format : AC-3
Format/Info : Audio Coding 3
Commercial name : Dolby Digital
Codec ID : A_AC3
Duration : 2 h 8 min
Bit rate mode : Constant
Bit rate : 192 kb/s
Channel(s) : 2 channels
Channel layout : L R
Sampling rate : 48.0 kHz
Frame rate : 31.250 FPS (1536 SPF)
Compression mode : Lossy
Stream size : 177 MiB (0%)
Title : VO Gavrilov 1
Service kind : Complete Main
Default : No
Forced : No

Audio #15
ID : 16
Format : AC-3
Format/Info : Audio Coding 3
Commercial name : Dolby Digital
Codec ID : A_AC3
Duration : 2 h 8 min
Bit rate mode : Constant
Bit rate : 192 kb/s
Channel(s) : 2 channels
Channel layout : L R
Sampling rate : 48.0 kHz
Frame rate : 31.250 FPS (1536 SPF)
Compression mode : Lossy
Stream size : 177 MiB (0%)
Title : VO Antonov
Language : Russian
Service kind : Complete Main
Default : No
Forced : No

Audio #16
ID : 17
Format : DTS
Format/Info : Digital Theater Systems
Codec ID : A_DTS
Duration : 2 h 8 min
Bit rate mode : Constant
Bit rate : 1 509 kb/s
Channel(s) : 6 channels
Channel layout : C L R Ls Rs LFE
Sampling rate : 48.0 kHz
Frame rate : 93.750 FPS (512 SPF)
Bit depth : 24 bits
Compression mode : Lossy
Stream size : 1.36 GiB (3%)
Title : Original Theatrical Mix
Language : English
Default : No
Forced : No

Audio #17
ID : 18
Format : AC-3
Format/Info : Audio Coding 3
Commercial name : Dolby Digital
Codec ID : A_AC3
Duration : 2 h 8 min
Bit rate mode : Constant
Bit rate : 128 kb/s
Channel(s) : 2 channels
Channel layout : L R
Sampling rate : 48.0 kHz
Frame rate : 31.250 FPS (1536 SPF)
Compression mode : Lossy
Stream size : 118 MiB (0%)
Title : Commentary
Language : English
Service kind : Complete Main
Default : No
Forced : No

Text #1
ID : 19
Format : UTF-8
Codec ID : S_TEXT/UTF8
Codec ID/Info : UTF-8 Plain Text
Duration : 2 h 2 min
Bit rate : 69 b/s
Count of elements : 858
Stream size : 62.4 KiB (0%)
Title : Positive
Language : Russian
Default : No
Forced : No

Text #2
ID : 20
Format : UTF-8
Codec ID : S_TEXT/UTF8
Codec ID/Info : UTF-8 Plain Text
Duration : 2 h 2 min
Bit rate : 78 b/s
Count of elements : 1190
Stream size : 70.1 KiB (0%)
Language : Russian
Default : No
Forced : No

Text #3
ID : 21
Format : UTF-8
Codec ID : S_TEXT/UTF8
Codec ID/Info : UTF-8 Plain Text
Duration : 2 h 0 min
Bit rate : 50 b/s
Count of elements : 1168
Stream size : 44.7 KiB (0%)
Language : English
Default : No
Forced : No

Text #4
ID : 22
Format : UTF-8
Codec ID : S_TEXT/UTF8
Codec ID/Info : UTF-8 Plain Text
Duration : 2 h 7 min
Bit rate : 61 b/s
Count of elements : 1514
Stream size : 57.3 KiB (0%)
Title : SDH
Language : English
Default : No
Forced : No

Text #5
ID : 23
Format : UTF-8
Codec ID : S_TEXT/UTF8
Codec ID/Info : UTF-8 Plain Text
Duration : 2 h 8 min
Bit rate : 97 b/s
Count of elements : 1865
Stream size : 91.4 KiB (0%)
Title : Commentary
Language : English
Default : No
Forced : No

Menu
00:00:00.000 : en:Opening titles
00:00:51.635 : en:Birthday party
00:02:37.782 : en:“Happy birthday, sir”
00:05:37.211 : enrofound life experience
00:09:13.094 : en:Forty-eight
00:13:27.098 : en:Consumer Recreation Services
00:17:39.725 : en:“Confused . . . risky . . . bloody . . . whoops”
00:20:37.903 : en:John 9:25
00:24:34.765 : en:“This is your Game, and welcome to it”
00:30:33.206 : en:Helping hand
00:33:45.898 : en:“Don’t let her get away”
00:42:58.868 : en:Czar Nicholas
00:50:55.344 : en:Guy in the gray flannel suit
00:53:41.176 : en:Hotel Nikko
00:58:56.699 : en:Toyed with by depraved children
01:04:41.752 : en:Nicholas Van Cocksucker
01:07:51.901 : en:Human piñata
01:12:16.916 : en:California Regal Sedans
01:15:43.163 : en:Motive
01:18:40.757 : en:Cable Repair Specialists
01:26:34.814 : en:Blue 2/9690D
01:33:41.782 : en:Entombed
01:37:15.287 : en:“Can I have your attention, please?”
01:42:08.455 : en:Trust Taggarene
01:44:59.376 : en:“I love your work”
01:48:11.151 : enulling back the curtain
01:52:23.653 : en:“This is the Game”
01:59:13.479 : en:Cordially invited
02:03:29.610 : en:End credits



首发4K蓝光REMUX俄版资源,无视迅雷下载软件,推荐使用qBittorrent等下载软件,有条件的推荐115更好的下载软件!

心理游戏(45.73GB)Game, The.1997.WEB-DL.AI_UPSCALE_3840x2160_alq-8_SDR_Finalalang
游客,如果您要查看本帖隐藏内容请回复


心,爱心.gif



回复

使用道具 举报

40

主题

1386

帖子

3988

积分

4K家园VIP

Rank: 9Rank: 9Rank: 9

积分
3988
发表于 2021-3-29 10:19:18 | 显示全部楼层
锄禾日当午,发帖真辛苦。谁知坛中餐,帖帖皆辛苦!
回复 支持 反对

使用道具 举报

0

主题

3520

帖子

9860

积分

4K家园VIP

Rank: 9Rank: 9Rank: 9

积分
9860
发表于 2021-3-29 11:12:09 | 显示全部楼层
太好啦&萬分感謝版主的無私發佈分享%
回复 支持 反对

使用道具 举报

2

主题

1517

帖子

4137

积分

4K家园VIP

Rank: 9Rank: 9Rank: 9

积分
4137
发表于 2021-3-29 15:01:43 | 显示全部楼层
楼主这资源不错,我收藏了
回复 支持 反对

使用道具 举报

1

主题

1180

帖子

3556

积分

4K家园VIP

Rank: 9Rank: 9Rank: 9

积分
3556
发表于 2021-3-29 18:03:43 | 显示全部楼层
回复 支持 反对

使用道具 举报

0

主题

5

帖子

40

积分

新手上路

Rank: 1

积分
40
发表于 2021-3-29 18:54:32 | 显示全部楼层
啊啊啊啊啊啊啊啊啊啊
回复 支持 反对

使用道具 举报

匿名  发表于 2021-3-29 21:35:36
hhh《心理游戏/致命游戏(俄版)》4K高清版本下载
回复 支持 反对

使用道具

0

主题

2

帖子

13

积分

新手上路

Rank: 1

积分
13
发表于 2021-3-29 21:44:25 | 显示全部楼层
测试测试测试测试测试测试测试测试测试测试测试测试
回复 支持 反对

使用道具 举报

1

主题

1230

帖子

3712

积分

4K家园VIP

Rank: 9Rank: 9Rank: 9

积分
3712
发表于 2021-3-30 02:14:46 | 显示全部楼层
小白一个 顶一下
回复 支持 反对

使用道具 举报

0

主题

1196

帖子

3604

积分

4K家园VIP

Rank: 9Rank: 9Rank: 9

积分
3604
发表于 2021-3-30 09:46:11 | 显示全部楼层
没明白
回复 支持 反对

使用道具 举报

您需要登录后才可以回帖 登录 | 立即注册

本版积分规则

精彩图文
Archiver|手机版|TAG|Sitemap|新帖|专题|联系我们:邮箱: 4kjia.com@gmail.com   

4k家园   ©2019