[4K UHD 蓝光原盘] 《迷墙/Roger Waters: The Wall(俄版)》4K蓝光REMUX 版本下载

  [复制链接]

803

主题

827

帖子

1万

积分

超级版主

Rank: 8Rank: 8

积分
10704
 楼主| 发表于 2021-3-11 11:09:52 | 显示全部楼层 |阅读模式

QQ图片20210311103358_meitu_3_副本.jpg
◎译  名 迷墙
◎片  名 Roger Waters: The Wall
◎年  代 2014
◎产  地 英国
◎类  别 纪录片 / 音乐
◎语  言 英语,法语
◎上映日期 2014-09-06(多伦多电影节)
◎IMDb评分 8.6/10 from 4503 users
◎IMDb链接 https://www.imdb.com/title/tt3970482/
◎豆瓣评分 9.3/10 from 1372 users
◎豆瓣链接 https://movie.douban.com/subject/25979678/
◎片  长 132分钟
◎导  演 尚恩·埃文斯 Sean Evans / 罗杰·沃特斯 Roger Waters
◎编  剧 尚恩·埃文斯 Sean Evans / 罗杰·沃特斯 Roger Waters
◎主  演 罗杰·沃特斯 Roger Waters
        戴夫·金曼斯特 Dave Kilminster
        斯诺伊·怀特 Snowy White
        G·E·史密斯 G.E. Smith
        乔恩·凯琳 Jon Carin



◎简  介

  电影制片人成功地制作了一部令人惊叹且有趣的电影。PINK FLOYD主唱罗杰·沃特斯(Roger Waters)的专辑《迷墙》(The Wall)是音乐史上最熟练的舞台表演之一。这是还原后的音乐会录像,纪实纪事,动画片段以及最先进的视觉和特效技术的独特融合,Roger Waters还包括他的自传中的录像……沃特斯在一份声明中说:“不仅要记住我们堕落的亲人,还要记住所有其他人。” “骨灰还是钻石,敌人还是朋友-最后,每个人都是平等的。”


跟踪列表:
01.丢失的推测为已死的人
02.在路上
03.在肉身中?
04.薄冰
05.墙上的另一块砖,铂。1
06.我们一生中最幸福的日子
07.墙上的另一块砖,Pt。2
08.让·查尔斯·德梅内塞斯的歌谣
09.母亲
10.寻找乔治·亨利
11.再见蓝天
12.空旷的地方
13.我们现在该怎么办?
14.年轻的欲望
15.轮到我了
16.不要现在离开我
17.被闪电击中
18.难民倒叙
19.墙上的另一块砖,铂。3
20.最后几块砖
21.再见残酷的世界
22.一条路
23.嘿,你
24.外面有人吗?
25.没人回家
26. ...曾经
27.薇拉
28.带男孩回家
29.安齐奥海滩
30.舒适地麻木
31.表演必须继续进行
32.肉身
33.像地狱一样奔跑
34.等待着蠕虫
35.停止
36.试用
37.路的尽头
38.隔离墙外
39.积分


其他信息:

      仅适用于PINK FLOYD粉丝。很棒的声音和画面。
这是一个不寻常的4K高档实验。要下载还是不下载取决于您,我不对任何人强加我所谓的“创造力”。我只想与您分享我的实验...和以前一样-您可以随意使用我的作品。祝大家身体健康。
此版本的来源是官方的Blu-ray。目前,自然界中找不到4K光盘。



Media Info
General
Complete name : Roger Waters the Wall.2014\Roger Waters the Wall.2014.BD.AI_UPSCAL_3840x2160_alq-11_SDR_Finalalang.mkv
Format : Matroska
Format version : Version 4
File size : 63.1 GiB
Duration : 2 h 12 min
Overall bit rate mode : Variable
Overall bit rate : 68.1 Mb/s
Encoded date : UTC 2021-03-02 08:47:27
Writing application : mkvmerge v54.0.0 ('F Maj Pixie') 64-bit
Writing library : libebml v1.4.2 + libmatroska v1.6.3

Video
ID : 1
Format : AVC
Format/Info : Advanced Video Codec
Format profile : Baseline@L5.1
Format settings : 1 Ref Frames
Format settings, CABAC : No
Format settings, Reference fra : 1 frame
Format settings, GOP : M=1, N=12
Codec ID : V_MPEG4/ISO/AVC
Duration : 2 h 12 min
Bit rate : 60.2 Mb/s
Width : 3 840 pixels
Height : 2 160 pixels
Display aspect ratio : 16:9
Frame rate mode : Constant
Frame rate : 23.976 (24000/1001) FPS
Color space : YUV
Chroma subsampling : 4:2:0
Bit depth : 8 bits
Scan type : Progressive
Bits/(Pixel*Frame) : 0.303
Stream size : 55.8 GiB (88%)
Writing library : x264 core 157 r2970 5493be8
Encoding settings : cabac=0 / ref=1 / deblock=0:0:0 / analyse=0:0 / me=dia / subme=0 / psy=1 / psy_rd=1.00:0.00 / mixed_ref=0 / me_range=16 / chroma_me=1 / trellis=0 / 8x8dct=0 / cqm=0 / deadzone=21,11 / fast_pskip=1 / chroma_qp_offset=0 / threads=8 / lookahead_threads=1 / sliced_threads=0 / nr=0 / decimate=1 / interlaced=0 / bluray_compat=0 / constrained_intra=0 / bframes=0 / weightp=0 / keyint=12 / keyint_min=1 / scenecut=0 / intra_refresh=0 / rc=crf / mbtree=0 / crf=15.0 / qcomp=0.60 / qpmin=0 / qpmax=69 / qpstep=4 / ip_ratio=1.40 / aq=0
Default : Yes
Forced : No

Audio #1
ID : 2
Format : MLP FBA 16-ch
Format/Info : Meridian Lossless Packing FBA with 16-channel presentation
Commercial name : Dolby TrueHD with Dolby Atmos
Codec ID : A_TRUEHD
Duration : 2 h 12 min
Bit rate mode : Variable
Bit rate : 5 637 kb/s
Maximum bit rate : 7 992 kb/s
Channel(s) : 8 channels
Channel layout : L R C LFE Ls Rs Lb Rb
Sampling rate : 48.0 kHz
Frame rate : 1 200.000 FPS (40 SPF)
Compression mode : Lossless
Stream size : 5.22 GiB (8%)
Language : English
Default : Yes
Forced : Yes
Number of dynamic objects : 11
Bed channel count : 1 channel
Bed channel configuration : LFE

Audio #2
ID : 3
Format : PCM
Format settings : Little / Signed
Codec ID : A_PCM/INT/LIT
Duration : 2 h 12 min
Bit rate mode : Constant
Bit rate : 1 536 kb/s
Channel(s) : 2 channels
Sampling rate : 48.0 kHz
Frame rate : 200.000 FPS (240 SPF)
Bit depth : 16 bits
Stream size : 1.42 GiB (2%)
Language : English
Default : No
Forced : No

Audio #3
ID : 4
Format : AC-3
Format/Info : Audio Coding 3
Commercial name : Dolby Digital
Codec ID : A_AC3
Duration : 2 h 12 min
Bit rate mode : Constant
Bit rate : 640 kb/s
Channel(s) : 6 channels
Channel layout : L R C LFE Ls Rs
Sampling rate : 48.0 kHz
Frame rate : 31.250 FPS (1536 SPF)
Compression mode : Lossy
Stream size : 607 MiB (1%)
Language : English
Service kind : Complete Main
Default : No
Forced : No

Text #1
ID : 5
Format : PGS
Muxing mode : zlib
Codec ID : S_HDMV/PGS
Codec ID/Info : Picture based subtitle format used on BDs/HD-DVDs
Duration : 2 h 11 min
Bit rate : 7 390 b/s
Count of elements : 796
Stream size : 6.95 MiB (0%)
Language : Russian
Default : Yes
Forced : Yes

Text #2
ID : 6
Format : PGS
Muxing mode : zlib
Codec ID : S_HDMV/PGS
Codec ID/Info : Picture based subtitle format used on BDs/HD-DVDs
Duration : 2 h 7 min
Bit rate : 19.4 kb/s
Count of elements : 1938
Stream size : 17.7 MiB (0%)
Language : English
Default : No
Forced : No

Text #3
ID : 7
Format : PGS
Muxing mode : zlib
Codec ID : S_HDMV/PGS
Codec ID/Info : Picture based subtitle format used on BDs/HD-DVDs
Duration : 1 min 5 s
Bit rate : 33.4 kb/s
Count of elements : 36
Stream size : 266 KiB (0%)
Language : English
Default : No
Forced : No

Menu
00:00:00.000 : :Глава 01
00:03:22.000 : :Глава 02
00:07:16.000 : :Глава 03
00:10:41.000 : :Глава 04
00:13:31.000 : :Глава 05
00:17:40.000 : :Глава 06
00:19:10.000 : :Глава 07
00:22:50.000 : :Глава 08
00:24:37.000 : :Глава 09
00:32:32.000 : :Глава 10
00:38:00.000 : :Глава 11
00:41:50.000 : :Глава 12
00:44:37.000 : :Глава 13
00:46:06.000 : :Глава 14
00:50:07.000 : :Глава 15
00:53:37.000 : :Глава 16
00:57:40.000 : :Глава 17
01:01:13.000 : :Глава 18
01:02:32.000 : :Глава 19
01:03:50.000 : :Глава 20
01:07:12.000 : :Глава 21
01:08:30.000 : :Глава 22
01:13:00.000 : :Глава 23
01:17:45.000 : :Глава 24
01:20:25.000 : :Глава 25
01:24:08.000 : :Глава 26
01:25:20.000 : :Глава 27
01:26:30.000 : :Глава 28
01:28:12.000 : :Глава 29
01:29:00.000 : :Глава 30
01:36:28.000 : :Глава 31
01:39:00.000 : :Глава 32
01:43:40.000 : :Глава 33
01:50:10.000 : :Глава 34
01:54:12.000 : :Глава 35
01:54:45.000 : :Глава 36
02:01:15.000 : :Глава 37
02:03:16.000 : :Глава 38
02:07:53.000 : :Глава 39



QQ图片20210311110032_meitu_4.jpg


首发4K蓝光REMUX俄版资源,无视迅雷下载软件,推荐使用qBittorrent等下载软件,有条件的推荐115更好的下载软件!
游客,如果您要查看本帖隐藏内容请回复


1心,爱心.gif

回复

使用道具 举报

55

主题

1337

帖子

3865

积分

4K家园VIP

Rank: 9Rank: 9Rank: 9

积分
3865
发表于 2021-3-11 11:09:57 | 显示全部楼层
我只是看看啊,不说话
回复 支持 反对

使用道具 举报

0

主题

3503

帖子

9830

积分

4K家园VIP

Rank: 9Rank: 9Rank: 9

积分
9830
发表于 2021-3-11 12:53:42 | 显示全部楼层
太好啦&萬分感謝版主的無私發佈分享%
回复 支持 反对

使用道具 举报

0

主题

24

帖子

509

积分

新手上路

Rank: 1

积分
509
发表于 2021-3-13 12:48:35 | 显示全部楼层
电视上在线看过,值得一看再看。
回复 支持 反对

使用道具 举报

0

主题

413

帖子

1414

积分

注册会员

Rank: 2

积分
1414
发表于 2021-3-13 13:49:33 | 显示全部楼层
感谢楼主分享
回复 支持 反对

使用道具 举报

1

主题

1469

帖子

4029

积分

4K家园VIP

Rank: 9Rank: 9Rank: 9

积分
4029
发表于 2021-3-13 22:54:19 | 显示全部楼层
4K家园资源最近貌似越来越多了
回复 支持 反对

使用道具 举报

0

主题

190

帖子

1299

积分

4K家园VIP

Rank: 9Rank: 9Rank: 9

积分
1299
QQ
发表于 2021-3-13 23:02:07 | 显示全部楼层
楼主辛苦了,谢谢楼主,感谢楼主分享,楼主好人一生平安!!!
回复 支持 反对

使用道具 举报

3

主题

1238

帖子

3544

积分

4K家园VIP

Rank: 9Rank: 9Rank: 9

积分
3544
发表于 2021-3-15 05:22:26 | 显示全部楼层
你们要是有4K资源记得分享,别小气
回复 支持 反对

使用道具 举报

1

主题

1230

帖子

3712

积分

4K家园VIP

Rank: 9Rank: 9Rank: 9

积分
3712
发表于 2021-3-18 14:15:10 | 显示全部楼层
4K家园资源最近貌似越来越多了
回复 支持 反对

使用道具 举报

0

主题

1155

帖子

3485

积分

4K家园VIP

Rank: 9Rank: 9Rank: 9

积分
3485
发表于 2021-3-19 08:33:57 | 显示全部楼层
多发些资源啊
回复 支持 反对

使用道具 举报

您需要登录后才可以回帖 登录 | 立即注册

本版积分规则

精彩图文
Archiver|手机版|TAG|Sitemap|新帖|专题|联系我们:邮箱: 4kjia.com@gmail.com   

4k家园   ©2019